<?xml version="1.0" standalone="no"?>
<!DOCTYPE svg PUBLIC "-//W3C//DTD SVG 1.1//EN" "http://www.w3.org/Graphics/SVG/1.1/DTD/svg11.dtd" >
<svg xmlns="http://www.w3.org/2000/svg" xmlns:xlink="http://www.w3.org/1999/xlink" version="1.1">
<metadata>
Created by FontForge 20161013 at Sat Nov 27 10:38:56 2010
 By ,,,
Copyright (c) 1999-2010, Ben Weiner (ben@readingtype.org.uk), with Reserved Font Name Bentham.
</metadata>
<defs>
<font id="Bentham-Regular" horiz-adv-x="512" >
  <font-face 
    font-family="Bentham"
    font-weight="400"
    font-stretch="normal"
    units-per-em="1024"
    panose-1="2 0 5 3 0 0 0 0 0 0"
    ascent="768"
    descent="-256"
    x-height="395"
    cap-height="626"
    bbox="-75 -260 1016 878"
    underline-thickness="20"
    underline-position="-176"
    unicode-range="U+0013-FB03"
  />
<missing-glyph horiz-adv-x="372" 
d="M34 0v682h271v-682h-271zM68 34h203v614h-203v-614z" />
    <glyph glyph-name="uniFB00" unicode="ff" horiz-adv-x="583" 
d="M34 0v18q82 6 86 29l4 331h-84v22h84v17q0 55 8 101.5t21 68.5q18 31 57.5 57.5t97.5 26.5q74 0 115 -50q46 50 121 50q46 0 94 -24t48 -63q0 -26 -14.5 -47.5t-42.5 -21.5q-20 0 -33 15.5t-13 32.5q0 13 9 25t18 16l10 5q-1 25 -25.5 35.5t-53.5 10.5q-52 0 -76 -53
q-14 -33 -14 -123v-10.5v-8.5q0 -9 1 -27.5t1 -32.5h95v-22h-95l6 -331q1 -25 79 -29v-18q-131 4 -279 4q-138 0 -225 -4zM207 378l6 -331q4 -30 67 -30q81 0 86 30l4 331h-163zM305 655q-30 0 -53 -15t-33 -38q-14 -33 -14 -123v-10.5v-8.5q0 -9 1 -27.5t1 -32.5h163v17
q0 55 8 101.5t20 68.5q3 6 14 20q-7 20 -43 34t-64 14z" />
    <glyph glyph-name="fi" unicode="fi" horiz-adv-x="568" 
d="M492 584q0 -79 -58 -79q-20 0 -38 18.5t-18 39.5q0 13 9 25t19 16l9 5q-1 25 -31 41t-58 16q-26 0 -46 -7t-32 -19t-21 -28t-12.5 -35t-6 -39t-2.5 -40t-1 -38q0 -9 1 -27.5t1 -32.5h154q65 0 126 22q-2 -173 -2 -381q1 -10 27 -17.5t43 -7.5v-16q-41 3 -109 3
q-65 0 -104 -3v16q61 2 64 25v332q-14 4 -17 5h-182l6 -331q0 -13 26.5 -21t52.5 -8v-18q-59 4 -134 4t-124 -4v18q32 0 59 8.5t27 18.5l4 333h-84v22h84v17q0 264 205 264q28 0 64.5 -12.5t67.5 -35t31 -49.5z" />
    <glyph glyph-name="fl" unicode="fl" horiz-adv-x="598" 
d="M410 614q-47 51 -95 52q-37 0 -61 -21t-33.5 -58.5t-12 -64t-3.5 -62.5q0 -9 1 -27.5t1 -32.5h116v-22h-116l6 -330q0 -12 27.5 -21t51.5 -9v-18q-59 4 -134 4t-124 -4v18q32 0 58.5 9t27.5 21l4 330h-84v22h84v14q0 39 5 74.5t19 71.5t35.5 62t56 42.5t78.5 16.5
q24 0 61 -14t60 -31q12 2 29 9.5t34 11.5q-4 -90 -4 -173q0 -27 1 -143t1 -226v-78q2 -10 27 -15t42 -6v-16q-44 5 -105 5q-71 0 -116 -5v16q22 1 44.5 8.5t23.5 18.5q4 105 4 269q0 170 -4 276q0 1 -6 26z" />
    <glyph glyph-name="uniFB03" unicode="ffi" horiz-adv-x="823" 
d="M717 584q0 -26 -14.5 -47.5t-43.5 -21.5q-20 0 -33 15.5t-13 32.5q0 13 9.5 25t18.5 16l9 5q-1 25 -30.5 41t-58.5 16q-28 0 -47.5 -10t-31 -26.5t-18.5 -38t-8.5 -44t-3.5 -45.5t-1 -42q0 -9 1 -27.5t1 -32.5h188q37 5 82 22q-2 -173 -2 -379q3 -12 26 -19t44 -8v-16
q-41 3 -109 3q-65 0 -104 -3v16q23 1 43 9t20 18v330q-13 4 -16 5h-172l6 -332q2 -24 79 -28v-18q-131 4 -279 4q-138 0 -225 -4v18q79 1 86 27l4 333h-84v22h84v17q0 55 8 101.5t21 68.5q19 34 58.5 64t96.5 30q28 0 59.5 -16t55.5 -44q20 23 59.5 41.5t81.5 18.5
q45 0 99 -29t54 -68zM412 607q-8 22 -45 40.5t-62 18.5q-22 0 -38.5 -8t-26.5 -21t-17.5 -30.5t-10.5 -37t-5 -39t-1.5 -37.5t-0.5 -33q0 -9 1 -27.5t1 -32.5h163v26q0 125 42 181zM370 378h-163l6 -333q1 -13 22 -20.5t45 -7.5q79 0 86 28z" />
    <glyph glyph-name=".notdef" horiz-adv-x="372" 
d="M34 0v682h271v-682h-271zM68 34h203v614h-203v-614z" />
    <glyph glyph-name=".null" horiz-adv-x="0" 
 />
    <glyph glyph-name="nonmarkingreturn" horiz-adv-x="340" 
 />
    <glyph glyph-name="uni0013" horiz-adv-x="739" 
 />
    <glyph glyph-name="space" unicode=" " horiz-adv-x="204" 
 />
    <glyph glyph-name="exclam" unicode="!" horiz-adv-x="425" 
d="M190 197q-31 372 -30 372q0 29 67 29q32 0 44 -7t12 -21q0 -42 -56 -372v-1h-37zM207 112q29 0 45 -17.5t16 -44.5q0 -26 -17 -44t-41 -18q-28 0 -46 14t-18 46q1 64 61 64z" />
    <glyph glyph-name="quotedbl" unicode="&#x22;" horiz-adv-x="223" 
d="M52 645q16 0 25 -12t9 -28q0 -71 -26 -165q-9 -4 -13 0l-16 68q-17 68 -18 94q0 43 39 43zM175 645q16 0 25 -12t9 -28q0 -69 -27 -165q-6 -3 -12 0l-16 68q-17 68 -18 94q0 43 39 43z" />
    <glyph glyph-name="numbersign" unicode="#" 
d="M286 538l-82 -6v-112l82 5v113zM89 544l74 6v73l41 3v-73l82 5v74l41 3v-74l73 6v-20l-73 -6v-113l73 6v-20l-73 -6v-73l-41 -3v72l-82 -5v-73l-41 -3v73l-74 -6v21l74 6v112l-74 -6v21z" />
    <glyph glyph-name="dollar" unicode="$" horiz-adv-x="587" 
d="M471 314q0 -27 -21 -52t-43 -25q-25 0 -40 15t-15 43q0 23 14.5 35t26.5 12q28 0 47 -23q0 47 -34 71t-78 27v-214q147 -56 147 -144q0 -28 -7 -52.5t-23.5 -48t-46.5 -39t-70 -20.5v-79h-48v77q-27 2 -53 9.5t-53 22t-43 40.5t-16 60q0 32 21 49.5t42 17.5q24 0 43 -17
t19 -38q0 -25 -12.5 -41t-31.5 -16q-33 0 -51 27q8 -42 48 -64t86 -24l-1 214q-52 24 -91 65t-39 81q0 61 32.5 102.5t95.5 51.5l-1 102h53v-100q22 -2 45 -10t45.5 -22.5t37.5 -38.5t15 -54zM278 226l-2 183q-27 -11 -42.5 -36t-15.5 -59q1 -51 60 -88zM328 114v-186
q38 11 53.5 40.5t15.5 63.5q1 46 -69 82z" />
    <glyph glyph-name="percent" unicode="%" 
d="M8 340q0 54 35.5 86t83.5 32q45 0 80.5 -30.5t35.5 -87.5q0 -45 -36 -76t-81 -31t-81.5 31t-36.5 76zM127 447q-32 0 -50.5 -29.5t-18.5 -77.5q0 -43 19 -69t49 -26t49 26.5t19 68.5q0 107 -67 107zM267 67q0 54 35.5 85.5t83.5 31.5q45 0 80.5 -30t35.5 -87
q0 -45 -36 -76.5t-81 -31.5t-81.5 31t-36.5 77zM386 174q-32 0 -50.5 -29.5t-18.5 -77.5q0 -43 19 -69.5t49 -26.5t49 27t19 69q0 107 -67 107zM432 485l32 -22l-395 -553l-32 22z" />
    <glyph glyph-name="ampersand" unicode="&#x26;" horiz-adv-x="627" 
d="M229 381q59 31 77 50.5t18 71.5q0 46 -21 72.5t-58 26.5q-34 0 -55 -31.5t-21 -75.5q0 -45 60 -114zM437 24l-39 43q-76 -78 -171 -78q-121 0 -165 62q-9 13 -16.5 23t-12.5 30.5t-5 51.5v1q0 55 21.5 90t68.5 71q20 14 47 30q-24 27 -42 67.5t-18 78.5q0 63 45 97t93 34
q66 0 105.5 -27t39.5 -83q0 -47 -32.5 -81t-106.5 -78q65 -88 176 -219q19 25 25.5 48t6.5 60q0 18 -13 36q-19 27 -56 26l-3 16h195l-1 -19q-52 0 -64 -11q-17 -17 -17 -50q0 -29 -19.5 -67t-35.5 -57l25 -31q4 -7 13 -17t18 -19t21 -15.5t24 -6.5q31 0 41 18t10 54l20 -3
q0 -110 -81 -109q-68 0 -97 34zM260 31q39 0 63 10.5t58 41.5q-51 63 -122.5 150.5t-72.5 87.5q-32 -15 -50.5 -41t-24 -46t-5.5 -39q0 -46 35 -96q49 -68 119 -68z" />
    <glyph glyph-name="quotesingle" unicode="'" horiz-adv-x="204" 
d="M105 645q28 0 28 -40q0 -31 -7 -84.5t-14 -77.5q-1 -5 -9 -5h-7h-6q-1 0 -4 1.5t-3 0.5l-5 68q-6 69 -6 95q-1 42 33 42z" />
    <glyph glyph-name="parenleft" unicode="(" horiz-adv-x="304" 
d="M318 733l27 -32q-12 -12 -51.5 -46t-67 -64.5t-45.5 -65.5q-26 -49 -34.5 -98t-8.5 -137q0 -202 32 -282q24 -58 64.5 -106t75.5 -75l-28 -38q-77 52 -154.5 187t-77.5 284q0 65 22 131t48.5 112t71 98.5t67 75t59.5 56.5z" />
    <glyph glyph-name="parenright" unicode=")" horiz-adv-x="304" 
d="M-14 733q37 -34 60 -56.5t67 -75t70.5 -98.5t48.5 -112t22 -131q0 -150 -77.5 -284.5t-153.5 -186.5l-29 38q35 27 76 75t64 106q32 79 32 282q0 88 -9 137t-34 98q-17 35 -45 65.5t-67.5 64.5t-51.5 46z" />
    <glyph glyph-name="asterisk" unicode="*" horiz-adv-x="569" 
d="M247 548q16 0 26.5 -11.5t10.5 -25.5q0 -58 -27 -150l-24 61q-23 59 -22 86q0 17 6 26.5t13 11.5t17 2zM254 165q-10 0 -17 2t-13 11t-6 27q0 27 20 88l19 61q1 -5 11 -36t16.5 -62t6.5 -54q0 -14 -10.5 -25.5t-26.5 -11.5zM86 443q11 18 32 19q10 0 18 -5
q57 -33 118 -98l-64 10q-65 10 -88 23q-24 13 -23 31q0 8 7 20zM421 258q-11 -19 -27 -19q-11 0 -25 8q-23 13 -66 61l-44 48q14 -2 67 -16.5t82 -31.5q18 -10 18 -32q0 -9 -5 -18zM97 254q-5 9 -5 18q0 22 19 32q50 29 143 52l-18 -23q-17 -24 -43.5 -52.5t-42.5 -37.5
q-14 -8 -26 -9q-16 1 -27 20zM425 452q7 -11 7 -21q0 -17 -23 -31q-24 -13 -86 -27l-63 -14q4 3 26.5 28t45 45.5t43.5 32.5q9 5 19 5q21 0 31 -18z" />
    <glyph glyph-name="plus" unicode="+" 
d="M230 23v183h-184v61h183v185h62v-185h184v-61h-183v-183h-62z" />
    <glyph glyph-name="comma" unicode="," horiz-adv-x="254" 
d="M117 -9q-23 0 -40.5 20.5t-17.5 44.5q0 33 21.5 51.5t45.5 18.5q25 0 48 -22t23 -58q0 -53 -35 -101t-69 -53l-6 16q25 11 48.5 42t24.5 55q-24 -14 -43 -14z" />
    <glyph glyph-name="hyphen" unicode="-" horiz-adv-x="472" 
d="M82 333h335l-5 -69l-338 2z" />
    <glyph glyph-name="period" unicode="." horiz-adv-x="253" 
d="M127 131q26 0 47.5 -16.5t21.5 -49.5q0 -36 -19.5 -52.5t-49.5 -16.5q-25 0 -45.5 21t-20.5 48q0 31 21 48.5t45 17.5z" />
    <glyph glyph-name="slash" unicode="/" horiz-adv-x="309" 
d="M243 726l53 -14l-229 -857l-54 14z" />
    <glyph glyph-name="zero" unicode="0" 
d="M14 197q0 108 70 170.5t166 62.5q89 0 158.5 -60t69.5 -173q0 -89 -70.5 -151t-160.5 -62q-88 0 -160.5 61t-72.5 152zM250 409q-62 0 -99.5 -59t-37.5 -153q0 -86 38 -138.5t96 -52.5q59 0 97 53.5t38 137.5q0 212 -132 212z" />
    <glyph glyph-name="one" unicode="1" 
d="M108 25l136 11v333l-146 -50l-8 37l246 72v-392q13 -5 70 -7t70 -4v-24q-60 4 -161 4q-142 0 -204 -7z" />
    <glyph glyph-name="two" unicode="2" 
d="M237 426q50 0 96.5 -17t77.5 -51.5t31 -78.5t-26 -73.5t-97 -74.5q-36 -23 -90 -45l-55 -21h32q172 0 213 5l35 81h26l-49 -151h-378l-9 34l181 81q38 17 74.5 65.5t36.5 93.5q0 61 -26 95.5t-72 34.5q-37 0 -69.5 -22t-37.5 -51q26 -2 42.5 -16.5t16.5 -42.5
q0 -27 -19.5 -40t-44.5 -13q-22 0 -41.5 22t-19.5 57q0 44 48 86t124 42z" />
    <glyph glyph-name="three" unicode="3" 
d="M228 123l-6 20q52 18 61 23q30 14 58 42.5t28 55.5q0 58 -31 95.5t-84 37.5q-77 0 -102 -65q26 -2 46 -18.5t20 -43.5q0 -60 -58 -60q-33 0 -51.5 23.5t-18.5 54.5q0 45 52 90t120 45q74 0 130.5 -39.5t56.5 -93.5q0 -45 -29.5 -72.5t-91.5 -57.5q50 -11 96 -54t46 -100
q0 -108 -71.5 -169.5t-183.5 -61.5q-54 0 -108.5 42.5t-66.5 111.5l23 6q8 -53 51 -93.5t101 -40.5q76 0 114.5 55.5t38.5 121.5q0 58 -42.5 101.5t-97.5 43.5z" />
    <glyph glyph-name="four" unicode="4" 
d="M364 -4l1 -186h-84q1 0 1 186h-241l-32 30l340 401l22 -17l-4 -142q-3 -142 -3 -224v-24h65l28 36q29 36 38 53l15 -13q-5 -10 -16.5 -31t-19.5 -37t-13 -33q-19 0 -42.5 0.5t-54.5 0.5zM284 307q-6 -8 -106.5 -128.5t-122.5 -156.5h227q0 247 2 285z" />
    <glyph glyph-name="five" unicode="5" 
d="M440 329l-260 1l-65 -191q61 63 150 64q82 0 130.5 -53t48.5 -143q0 -89 -75 -158.5t-163 -69.5q-74 0 -128.5 42.5t-54.5 88.5q0 76 63 76q26 0 38.5 -18.5t12.5 -37.5q0 -23 -17 -37.5t-37 -16.5q4 -30 45 -52t80 -22q50 0 93 62.5t43 132.5q0 73 -26.5 124t-76.5 51
q-93 0 -136 -82q-6 0 -19 8l-12 8l97 290l267 1l28 62h26z" />
    <glyph glyph-name="six" unicode="6" 
d="M135 262q37 45 69 68t78 24h4q46 0 88.5 -20.5t73 -66t30.5 -106.5q0 -81 -61.5 -132.5t-156.5 -51.5q-39 0 -76 12t-72 37.5t-57 77t-22 121.5q0 37 14.5 82.5t46 93.5t73 87t102 64.5t126.5 25.5q32 0 74 -14t60 -32l-13 -18q-25 20 -64 32.5t-75 12.5q-41 0 -80 -18
t-74 -52t-58.5 -93t-29.5 -134zM266 316q-66 0 -100 -45t-35 -117q0 -62 38.5 -110t95.5 -48q51 0 81.5 47.5t30.5 116.5q0 91 -28.5 123.5t-82.5 32.5z" />
    <glyph glyph-name="seven" unicode="7" 
d="M444 406l27 30h23l-372 -663l-40 18l310 534q-154 4 -289 4l-15 -104l-20 8l10 176z" />
    <glyph glyph-name="eight" unicode="8" 
d="M467 160q0 -178 -219 -178q-91 0 -152 43.5t-61 132.5q0 66 63 108.5t119 48.5q-46 9 -89 45.5t-43 90.5q0 45 30.5 76t68 43t76.5 12q40 0 76 -11.5t63.5 -42.5t27.5 -77q0 -57 -45 -92.5t-95 -41.5q33 -6 72 -24.5t73.5 -54.5t34.5 -78zM353 449q0 50 -27.5 84
t-68.5 34q-40 0 -67 -31.5t-29 -80.5v-12q0 -102 91 -121q52 10 76.5 44.5t24.5 82.5zM379 164q0 70 -34.5 101t-91.5 42q-27 -4 -44.5 -9.5t-41 -20t-35.5 -43.5t-12 -71q0 -60 34 -110.5t94 -50.5q131 0 131 162z" />
    <glyph glyph-name="nine" unicode="9" 
d="M366 193q0 37 -1 57.5t-8 54t-19 52t-37.5 32.5t-60.5 14q-58 0 -85.5 -45t-27.5 -149q0 -77 27 -118.5t75 -41.5q54 0 95.5 39t41.5 105zM223 28q-73 0 -132.5 49t-59.5 133q0 98 57.5 157t155.5 59q38 0 75 -13t72.5 -41t57 -80t21.5 -123q0 -173 -92 -290t-248 -117
q-46 0 -95.5 34.5t-75.5 76.5l24 27q24 -41 72 -73t97 -32q53 0 93 20t63 48t37.5 74t21 83.5t10.5 90.5q-22 -32 -70 -57.5t-84 -25.5z" />
    <glyph glyph-name="colon" unicode=":" horiz-adv-x="254" 
d="M126 415q27 0 49 -15.5t22 -49.5q0 -36 -19.5 -58t-55.5 -22q-30 0 -46.5 23t-16.5 54t21.5 49.5t45.5 18.5zM126 123q27 0 49 -15.5t22 -49t-20.5 -52t-54.5 -18.5q-24 0 -43.5 21.5t-19.5 45.5q0 31 21.5 49.5t45.5 18.5z" />
    <glyph glyph-name="semicolon" unicode=";" horiz-adv-x="254" 
d="M122 -6q-23 0 -43 23t-20 44q0 31 21.5 49.5t45.5 18.5q25 0 48 -21t23 -56q0 -54 -33 -95t-68 -45v2q0 4 -3 9l-4 6q25 5 47.5 29.5t23.5 48.5q-23 -13 -38 -13zM126 411q27 0 49 -15.5t22 -49.5q0 -37 -19 -58.5t-56 -21.5q-35 0 -51.5 22t-16.5 56q0 31 23.5 49
t48.5 18z" />
    <glyph glyph-name="less" unicode="&#x3c;" horiz-adv-x="510" 
d="M397 446v-21l-223 -189v-18l212 -193v-28l-324 216v33z" />
    <glyph glyph-name="equal" unicode="=" 
d="M46 339h429v-61h-429v61zM46 185h429v-61h-429v61z" />
    <glyph glyph-name="greater" unicode="&#x3e;" horiz-adv-x="510" 
d="M62 446l335 -210v-33l-323 -206v28l212 183v17l-224 200v21z" />
    <glyph glyph-name="question" unicode="?" 
d="M381 272l22 -14q-35 -92 -131 -92q-34 0 -70 27.5t-36 62.5q0 60 54 93q17 9 39 24t40 30.5t30.5 39t12.5 51.5q0 60 -31 96.5t-82 36.5q-34 0 -64.5 -33t-35.5 -64q65 -4 65 -53q0 -27 -17 -44t-48 -17q-33 0 -50 25.5t-17 54.5q0 44 51 98t124 54q24 0 48 -4.5
t52.5 -16t50.5 -28.5t36 -46.5t14 -66.5q0 -42 -22.5 -71.5t-54 -46t-64 -30t-55 -34.5t-22.5 -51q0 -67 54 -67q41 0 68 24.5t39 61.5zM211 37q0 27 17 42t43.5 15t42 -14.5t15.5 -42.5q0 -27 -17 -43t-43.5 -16t-42 15.5t-15.5 43.5z" />
    <glyph glyph-name="at" unicode="@" horiz-adv-x="608" 
d="M456 2l-72 -9l13 75q-6 -9 -18 -22t-25 -25t-33.5 -20t-41.5 -8q-46 0 -75 34t-29 97q0 47 16.5 83.5t41.5 55.5t48.5 27.5t43.5 8.5q65 0 99 -30l4 30h69q-10 -71 -33 -264q35 4 65 40t30 107q0 29 -2 50t-14 54t-33 54.5t-63.5 38t-101.5 16.5q-58 0 -103 -24.5
t-71 -64t-38.5 -82.5t-12.5 -87q0 -55 7.5 -95.5t28 -76.5t62 -55t103.5 -19q39 0 69.5 8.5t48 20.5t33 26.5t25.5 26.5l20 -28q-4 -3 -29 -25t-38.5 -29.5t-49 -16.5t-82.5 -9q-118 0 -193 75.5t-75 182.5q0 91 45.5 160t114.5 102t145 33q115 0 174 -71.5t59 -162.5
q0 -57 -42 -116.5t-90 -65.5zM402 98l21 150q-52 34 -92 34q-31 0 -54.5 -41.5t-23.5 -105.5q0 -50 11.5 -71.5t43.5 -21.5q29 0 56 18t38 38z" />
    <glyph glyph-name="A" unicode="A" horiz-adv-x="706" 
d="M429 276h-201l-95 -223q-3 -5 -3 -10q0 -14 22 -22.5t44 -8.5l1 -16l-197 -1v20h2q19 0 41 8.5t35 23.5q17 20 141 303l124 282h33l219 -519q28 -67 61 -83q9 -4 19 -5.5t19 -1.5t13 -1l-2 -25q-67 3 -151 3q-76 0 -123 -3l1 19q0 -1 18 -1q36 0 50 17q7 8 7 22
q0 13 -6 29l-5 15zM240 300h181l-89 216z" />
    <glyph glyph-name="B" unicode="B" horiz-adv-x="583" 
d="M236 616v-272l65 4q33 2 54.5 15.5t30.5 35.5t12 39.5t3 39.5q0 40 -20.5 78.5t-55.5 55.5q-13 6 -37 6q-8 0 -26 -1t-26 -1zM537 162q0 -27 -12.5 -54.5t-37 -53t-69.5 -41.5t-104 -16q-7 0 -40 0.5t-92 1t-128 0.5v16l18 3q18 2 37.5 10.5t21.5 19.5v193v209v143
q-2 11 -33 19l-30 10v17q59 0 144.5 -0.5t110.5 -0.5q38 0 75.5 -18t65.5 -55.5t28 -84.5v-2q-1 -53 -37.5 -97.5t-101.5 -46.5q184 -17 184 -172zM233 317l1 -249q0 -33 10 -41.5t35 -8.5q83 0 120 31.5t37 103.5q0 150 -136 163z" />
    <glyph glyph-name="C" unicode="C" horiz-adv-x="696" 
d="M395 641q58 0 110.5 -18t68.5 -37q12 8 18.5 17t8 16t4.5 29h32l-3 -207h-20q-13 81 -69.5 126.5t-157.5 45.5q-98 0 -148 -81t-52 -219q0 -305 214 -305q49 0 86 13.5t63.5 40.5t42 54t33.5 68l23 -18q-78 -188 -250 -189q-152 0 -248 86.5t-96 242.5q0 75 23 135t59 96
t82.5 61t90 34t85.5 9z" />
    <glyph glyph-name="D" unicode="D" horiz-adv-x="671" 
d="M635 296q0 -54 -19.5 -105.5t-57.5 -96t-102 -71t-146 -26.5q-7 0 -40.5 0.5t-92.5 1t-128 0.5v16q81 7 88 46v504q-1 13 -7 22.5t-20.5 14t-21 6t-26.5 3.5v18q59 0 154 1t120 1q49 0 98 -17.5t96 -54t76 -105t29 -158.5zM526 290v6q0 79 -9.5 132t-34.5 94.5t-70.5 61
t-114.5 19.5q-30 0 -63 -3v-90v-188v-180v-74q0 -19 15.5 -34.5t39.5 -15.5q73 0 119.5 15t72 50.5t35 83t10.5 123.5z" />
    <glyph glyph-name="E" unicode="E" horiz-adv-x="583" 
d="M513 0h-464v16q0 -1 28 -1q49 0 54 24q9 54 9 386q0 146 -4 160q-2 11 -38 19l-36 7v18q106 -3 236.5 -3t212.5 3l3 -145h-19q-5 25 -15 48.5t-34 47t-55 23.5h-157v-272h148q46 0 50 79h24v-180h-20q-5 78 -57 78h-145v-239q0 -48 35 -49h151q26 1 50.5 44.5t29.5 87.5
h22z" />
    <glyph glyph-name="F" unicode="F" horiz-adv-x="563" 
d="M317 -4q-50 4 -127 4t-141 -4v16q25 0 53 5.5t29 17.5q2 24 5 163.5t3 244.5q0 125 -3 142q-2 11 -38 19l-36 7v18q104 -4 235.5 -4t213.5 4l3 -145h-19q-5 25 -15 48.5t-34 47t-55 23.5h-157v-272h138q46 0 50 79h23v-180h-19q-5 78 -57 78h-135v-243q0 -45 35 -50
q8 -1 22 -1l26 1v-5v-8v-6z" />
    <glyph glyph-name="G" unicode="G" horiz-adv-x="747" 
d="M402 642q37 0 75.5 -15t59.5 -30t38 -26q14 6 25 26t13 41h26l-3 -207h-31q-29 182 -206 182q-104 0 -160.5 -73t-56.5 -245q0 -76 20.5 -138.5t68 -104.5t115.5 -42q49 0 95.5 21.5t71.5 56.5q3 39 3 81q0 37 -3 58q-39 23 -94 26v22h267v-22q-55 -6 -71 -26
q-4 -8 -4 -88q0 -66 2 -142h-17l-5 15q-4 16 -21 32.5t-41 16.5q-22 -33 -75.5 -58.5t-108.5 -25.5q-147 0 -240.5 87t-93.5 232q0 77 22 138.5t57.5 99t82.5 63t93.5 35.5t95.5 10z" />
    <glyph glyph-name="H" unicode="H" horiz-adv-x="755" 
d="M512 584q0 22 -66 24l-2 15q34 -2 84 -2q101 0 157 5v-15l-36 -7q-37 -8 -38 -19q-1 -9 -1 -98q0 -421 6 -452q4 -23 78 -23h4l2 -13q-48 4 -126 4q-89 0 -138 -5l1 17q76 0 76 29v264h-279v-264q0 -29 76 -29l1 -16q-32 1 -77 1q-99 0 -175 -4v16h4q63 0 68 23
q2 12 4 183t2 284q0 77 -1 83q-3 11 -34 19l-29 7v15q47 -4 120 -4q76 0 119 4v-20q-77 -5 -78 -23v-252h279z" />
    <glyph glyph-name="I" unicode="I" horiz-adv-x="376" 
d="M245 583q0 -1 -0.5 -56t-1 -137.5t-0.5 -150.5q0 -136 2 -194q1 -29 76 -29l1 -16q-32 1 -79 1q-108 0 -184 -4v16h4q74 0 78 23q5 30 5 549q0 11 -36 19l-37 7v15q47 -4 121 -4q77 0 120 4v-20q-69 -5 -69 -23z" />
    <glyph glyph-name="J" unicode="J" horiz-adv-x="385" 
d="M253 583q-4 -60 -4 -318q0 -32 0.5 -85t0.5 -76q0 -93 -10 -149.5t-39 -97.5q-51 -71 -147 -71q-65 0 -97 24.5t-32 58.5q0 27 18.5 46.5t46.5 19.5q31 0 49 -17.5t18 -43.5q0 -40 -40 -65q13 -7 34.5 -7.5t41.5 7t28 19.5q17 28 23 54t10 91q5 92 5 340q0 241 -4 272
q-2 11 -38 19l-36 7v15q47 -4 120 -4q76 0 120 4v-20q-11 0 -23 -1.5t-22 -3t-16 -6.5t-7 -12z" />
    <glyph glyph-name="K" unicode="K" horiz-adv-x="670" 
d="M471 545q1 3 5 12t4 12q-1 19 -17.5 28.5t-33.5 10.5l-2 15q34 -2 73 -2q69 0 124 5v-15l-15 -1q-14 -2 -35 -9t-33 -19q-48 -45 -93.5 -99.5t-97.5 -122.5q41 -53 80 -107.5t69 -94t78 -92.5q23 -26 46.5 -35t62.5 -13l-2 -19q-144 6 -145 6q-32 0 -60 -3
q-126 203 -192 295l-51 -66l-2 -187q0 -29 76 -29l1 -16q-32 1 -77 1q-99 0 -175 -4v16h4q61 0 68 23q7 30 7 398q0 141 -2 152q-3 11 -38 19l-36 7v15q47 -4 124 -4q82 0 126 4v-20q-74 -5 -78 -23v-324l116 135q115 136 121 151z" />
    <glyph glyph-name="L" unicode="L" horiz-adv-x="587" 
d="M245 68q0 -45 36 -45l129 -1q35 0 61.5 39t32.5 91h22l-16 -155h-461v16l23 1q24 2 47 9t24 18q5 54 5 345q0 165 -2 199q-1 13 -42 19l-42 7v18l257 1v-16q-70 -4 -72 -29q-3 -239 -3 -288q0 -25 0.5 -96t0.5 -133z" />
    <glyph glyph-name="M" unicode="M" horiz-adv-x="881" 
d="M208 627q247 -476 260 -506l221 502l172 7v-20q-13 -1 -31.5 -4t-41 -11.5t-22.5 -20.5v-515l8 -14q8 -14 22 -22q15 -8 39 -9l24 2v-18q-57 2 -135 2q-87 0 -133 -3v16q2 0 24 2t33 8q27 12 27 32v453l-235 -522h-16l-263 516v-263v-169q0 -18 2 -24.5t9.5 -11
t12.5 -9.5q22 -8 54 -9h3h3v-18q-49 3 -106 3q-63 0 -111 -4v16l40 5q40 6 52 17q7 6 11 16l3 10q2 0 2 469q-5 30 -42 51t-74 24v18z" />
    <glyph glyph-name="N" unicode="N" horiz-adv-x="687" 
d="M667 604q-14 -1 -31.5 -3.5t-37.5 -9.5t-20 -18q-2 -33 -3 -184l3 -400h-35l-191 261q-190 261 -201 272q-1 -85 -1 -139q0 -68 2.5 -130t2.5 -154v-40q0 -41 35 -41q57 0 58 -2v-18q-49 3 -111 3q-69 0 -117 -4v16h6q82 0 87 23q5 298 5 349q0 77 -2 178q-2 11 -47 30
l-45 18v18l185 -1q59 -82 194 -258l137 -176l1 379q-1 14 -25 22.5t-57 8.5h-15l-2 23q42 -5 104 -5q57 0 121 4v-22z" />
    <glyph glyph-name="O" unicode="O" horiz-adv-x="792" 
d="M416 8q94 0 153.5 85.5t59.5 218.5q0 158 -58 240t-163 82q-50 0 -89.5 -14t-75.5 -47t-55.5 -99.5t-19.5 -162.5q0 -36 6.5 -73.5t24.5 -79.5t44.5 -74.5t71.5 -54t101 -21.5zM416 651q36 0 75 -8t86 -31.5t82.5 -59.5t59.5 -98.5t24 -141.5q0 -77 -30.5 -140
t-79.5 -102.5t-106 -60.5t-113 -21q-151 0 -258 86.5t-107 229.5q0 82 23.5 145t60.5 100.5t87.5 61t98 32t97.5 8.5z" />
    <glyph glyph-name="P" unicode="P" horiz-adv-x="562" 
d="M534 447q0 -75 -57 -119t-156 -44q-35 0 -55 5l-20 6l-1 -248q0 -18 21 -27t51 -9q8 0 17 1v-15q0 2 -274 2v16h5q75 0 77 23q3 30 3 261.5t-3 285.5q-1 13 -34 19l-34 7v18q59 0 152 -1t118 -1q68 0 129 -49t61 -131zM433 447q0 31 -2.5 52.5t-11 44.5t-28 37.5
t-49.5 19.5q-17 3 -42 3q-9 0 -27 -0.5t-27 -0.5v-293q0 -5 67 -5q58 0 88.5 42.5t31.5 99.5z" />
    <glyph glyph-name="Q" unicode="Q" horiz-adv-x="739" 
d="M650 -139q36 0 50.5 22t14.5 63v5l28 6v-12q0 -67 -26 -114t-79 -47q-44 0 -84 16.5t-68.5 39.5t-55.5 46t-55.5 39.5t-57.5 16.5q-22 0 -39.5 -21.5t-24 -40t-7.5 -26.5l-19 4q0 18 12.5 49t30.5 49q11 10 36 17.5t48 7.5h1q41 0 93 -30.5t104.5 -60t97.5 -29.5z
M381 -12q-148 0 -246 87t-98 231q0 82 22.5 144.5t58 100t84.5 61t95 31.5t96 8q36 0 74 -8.5t82.5 -32t78.5 -60t57 -98.5t23 -140q0 -133 -102 -228.5t-225 -95.5zM385 634q-50 0 -88 -13.5t-72 -46.5t-51.5 -99t-17.5 -162q0 -37 4.5 -73t19 -79.5t37 -76t63.5 -54.5
t95 -22q35 0 63.5 5t50 14t38 24t27 28.5t18.5 36t12 40t6 45t2.5 46t0.5 48.5q0 59 -5.5 107.5t-20 93t-37.5 74t-60 47t-85 17.5z" />
    <glyph glyph-name="R" unicode="R" horiz-adv-x="636" 
d="M630 -2l-181 3v8q0 37 -27 138q-46 168 -122 169l-67 1l1 -248q0 -15 2 -24.5t10 -17.5t23 -8q44 -1 44 -2l-1 -19q-56 4 -149 4q-74 0 -114 -3v17q78 0 82 23q4 16 4 35q4 101 4 255q0 229 -4 253q-2 11 -37 19l-36 8v18q59 -2 140 -2q33 0 83 0.5t64 0.5q38 0 76 -17.5
t65.5 -54.5t27.5 -84q0 -51 -49 -92.5t-116 -43.5q31 -3 57 -17.5t42 -30.5t32.5 -46t23 -48t19.5 -53q31 -82 40 -94q22 -31 63 -33v-14zM344 600q-22 5 -55 5q-30 0 -55 -3v-261q68 -1 69 -1q56 0 85.5 39t29.5 93q0 46 -20 83t-54 45z" />
    <glyph glyph-name="S" unicode="S" horiz-adv-x="587" 
d="M301 653q77 0 131 -57q25 3 40 42h14l-3 -194h-19q-3 35 -8 66.5t-22 54.5q-47 69 -135 69q-47 0 -80 -36.5t-33 -75.5q0 -42 40 -79t106 -61q91 -34 146.5 -87t55.5 -119q0 -85 -56 -138t-186 -53q-28 0 -54 6t-42.5 15t-32 18.5t-22.5 15.5q-20 -9 -37 -41h-21l2 182
h20q17 -82 58.5 -127t124.5 -45q140 0 140 135q0 88 -148 140q-80 28 -126 79.5t-46 109.5q-1 180 193 180z" />
    <glyph glyph-name="T" unicode="T" horiz-adv-x="600" 
d="M232 37q22 28 22 57l1 511q-104 1 -105 1q-24 0 -43 -18t-29 -44.5t-16.5 -52t-7.5 -48.5h-19l4 186q112 -3 285 -3q163 0 251 3l3 -186h-20q-9 160 -83 161l-117 1l1 -511q0 -35 19 -57q15 -18 82 -19v-19h-307v19h6h6q53 1 67 19z" />
    <glyph glyph-name="U" unicode="U" horiz-adv-x="762" 
d="M240 218q0 -54 10.5 -93.5t26.5 -61t40.5 -34t45.5 -16t49 -3.5q39 0 67.5 10t52.5 33t36.5 66.5t12.5 107.5v27.5v44.5q0 138 -4 286q-2 11 -43 19l-41 7v15q47 -4 109 -4q66 0 110 4v-20q-47 -3 -88 -23q-3 -63 -3 -153l3 -191q0 -121 -58 -187.5t-172 -70.5
q-35 0 -69 6.5t-70 23.5t-62.5 43.5t-44 70t-17.5 98.5q0 3 1.5 32.5t3.5 84.5t2 122q0 61 -2 123q-2 11 -43 19l-41 7v15q47 -4 131 -4q90 0 134 4v-20q-59 -5 -77 -23q-1 -66 -1 -160z" />
    <glyph glyph-name="V" unicode="V" horiz-adv-x="700" 
d="M208 551q85 -211 182 -427q182 423 182 449q0 14 -20 22l-60 16v15q47 -4 105 -4q59 0 103 4v-20q-41 -2 -66 -17q-9 -6 -25 -30l-15 -23q-27 -79 -105 -266.5t-109 -283.5l-40 -1q-50 122 -127.5 298.5t-96.5 224.5q-27 68 -60 84q-25 12 -56 19v15q47 -4 143 -4
q103 0 148 4v-20q-68 -6 -74 -17q-5 -10 -7 -24z" />
    <glyph glyph-name="W" unicode="W" horiz-adv-x="1013" 
d="M367 -11h-39l-189 520q-25 66 -59 83q-25 12 -56 19v15q47 -4 152 -4q115 0 159 4v-20q-13 -1 -46 -9t-36 -14q-5 -11 -5 -31q0 -28 10 -58q19 -55 42 -116.5t48.5 -127t35.5 -92.5q48 131 120 361l36 117l26 -1q17 -67 90 -250.5t95 -246.5q7 23 45 134.5t65 197.5
t27 101q0 14 -21 22l-60 16v15q47 -4 105 -4q59 0 104 4v-20q-41 -2 -67 -17q-9 -6 -24 -30l-16 -23q-20 -63 -56.5 -173t-65 -200t-52.5 -172h-34q-20 62 -51.5 140.5t-72.5 173t-58 135.5q-11 -36 -70.5 -204t-81.5 -245z" />
    <glyph glyph-name="X" unicode="X" horiz-adv-x="735" 
d="M565 545l-148 -208l64 -97q63 -97 107 -158q34 -47 49 -53q25 -10 73 -21v-14q-47 4 -144 4q-103 0 -147 -4v19q59 5 64 16q3 6 3 15q0 16 -5 25q-33 52 -86.5 131.5t-53.5 78.5q-37 -50 -68 -93.5t-47 -65t-28 -37t-15.5 -21t-4.5 -8t-1 -4.5q0 -19 20 -25l60 -17v-14
q-47 4 -105 4q-59 0 -104 -4v19q41 2 67 18q9 6 26 24l19 20l169 224l-167 250q-16 22 -60 49q-6 4 -19 6.5t-28 4.5t-17 2v15q47 -4 148 -4q109 0 153 4v-20q-56 -5 -64 -17q-3 -7 -3 -16q0 -8 2 -15l2 -7l120 -196q114 156 133 182.5t19 31.5q0 19 -20 26l-60 16v15
q47 -4 105 -4q59 0 104 4v-20q-41 -2 -67 -17q-9 -6 -26 -26z" />
    <glyph glyph-name="Y" unicode="Y" horiz-adv-x="645" 
d="M286 247q-68 159 -171 302q-23 32 -45 43q-25 12 -57 19v15q47 -4 139 -4q98 0 142 4v-20q-56 -5 -64 -17q-5 -10 -7 -24l-2 -12q68 -132 139 -252q145 259 146 273q0 14 -23 21l-60 16v15q47 -4 105 -4q59 0 104 4v-20q-41 -2 -67 -17q-9 -6 -24 -22l-15 -16
q-118 -204 -145 -262q0 -38 4 -254q0 -25 82 -25v-19h-272v16h11q74 0 75 23q2 117 5 217z" />
    <glyph glyph-name="Z" unicode="Z" horiz-adv-x="600" 
d="M51 7q206 307 373 600l-236 -4q-19 0 -34.5 -9.5t-24.5 -21t-17 -31.5t-10.5 -29.5t-6.5 -27.5h-19l3 145q92 -6 207 -6q90 0 262 6v-22l-300 -496q-39 -69 -39 -95q0 -10 8 -10q178 0 225 6q26 3 57.5 50.5t37.5 89.5h22l-23 -161q-115 2 -227 2q-67 0 -258 -2v16z" />
    <glyph glyph-name="bracketleft" unicode="[" horiz-adv-x="282" 
d="M103 684h159v-22h-96v-766h96v-27h-159v815z" />
    <glyph glyph-name="backslash" unicode="\" horiz-adv-x="309" 
d="M67 726l229 -857l-53 -14l-230 857z" />
    <glyph glyph-name="bracketright" unicode="]" horiz-adv-x="282" 
d="M190 684v-815h-158v27h96v766h-96v22h158z" />
    <glyph glyph-name="asciicircum" unicode="^" horiz-adv-x="421" 
d="M72 453l138 151l123 -148l-14 -12l-112 104l-121 -104z" />
    <glyph glyph-name="underscore" unicode="_" horiz-adv-x="531" 
d="M45 -19h434v-50h-434v50z" />
    <glyph glyph-name="grave" unicode="`" horiz-adv-x="421" 
d="M101 587l29 34l157 -144l-23 -15z" />
    <glyph glyph-name="a" unicode="a" horiz-adv-x="467" 
d="M453 83l15 -9q-13 -81 -96 -81q-34 0 -51 22.5t-20 53.5q-20 -23 -30.5 -33t-39.5 -27.5t-58 -17.5q-50 0 -86 28t-36 89q0 27 11.5 47t32 32.5t41.5 20.5t49 11.5t46.5 4.5t41 1.5t24.5 0.5q3 0 3 74q0 95 -87 95q-30 0 -48 -13t-22 -31q29 0 29 -44q0 -27 -18 -38.5
t-35 -11.5q-19 0 -34 17.5t-15 38.5q0 37 47 72q38 29 105 29q63 0 112 -39t49 -106q0 -33 -2 -92t-2 -85q0 -67 31 -66q18 0 27 13t16 44zM297 94v118q-35 -3 -64.5 -6.5t-50.5 -11t-33 -25.5t-12 -50q0 -43 21.5 -63t54.5 -20q52 0 84 58z" />
    <glyph glyph-name="b" unicode="b" horiz-adv-x="522" 
d="M492 205q0 -96 -57.5 -155.5t-129.5 -59.5q-61 0 -129 73q-13 -14 -27 -40t-17 -30q-8 -1 -15 -1l-14 1q3 132 3 319q0 174 -3 284q0 17 -72 21v13q104 5 156 29l-4 -331q19 27 32.5 41t41 29t58.5 15q77 0 127 -51.5t50 -156.5zM397 208q0 31 -4.5 58t-14.5 54.5
t-32 44.5t-53 17q-27 0 -51.5 -20t-35.5 -39l-11 -20l-8 -92l3 -125l9 -14q8 -15 31 -30t54 -15q50 0 81.5 51t31.5 130z" />
    <glyph glyph-name="c" unicode="c" horiz-adv-x="434" 
d="M257 415q57 0 106.5 -33.5t49.5 -82.5q0 -39 -20 -59t-40 -20q-56 0 -56 54q0 22 13 37.5t29 15.5q18 0 34 -14q-20 84 -118 84q-48 0 -81 -59t-33 -148q0 -67 35.5 -119.5t87.5 -52.5q32 0 55 10t37 30.5t18 29.5t12 30l28 -20q-15 -39 -55.5 -76t-103.5 -37
q-94 0 -149 57t-55 168q0 54 21 95.5t54 64t66 34t65 11.5z" />
    <glyph glyph-name="d" unicode="d" horiz-adv-x="501" 
d="M450 656q-5 -169 -6 -391q0 -152 3 -232q0 -7 8 -11.5t16 -6t18.5 -2.5t12.5 -1v-12q-104 -4 -128 -10l-8 73q-22 -28 -57 -48.5t-70 -20.5q-79 0 -128.5 55.5t-49.5 145.5q0 95 56 156t143 61q27 0 49 -10t32.5 -21t16.5 -21l6 -10v249q-4 20 -72 21l1 17q102 0 157 19z
M357 131l7 92l-5 90l-5 13q-6 11 -16 26t-31 26.5t-46 11.5q-98 0 -98 -186q0 -177 101 -177q36 0 64.5 35.5t28.5 68.5z" />
    <glyph glyph-name="e" unicode="e" horiz-adv-x="450" 
d="M151 232l180 1q1 17 1 32q0 31 -5 50q-8 32 -32.5 52.5t-60.5 20.5q-37 0 -58 -42t-25 -114zM150 217v-22q0 -72 26.5 -130t76.5 -58q58 0 92 34t47 71l28 -20q-15 -38 -58 -73.5t-113 -35.5q-85 0 -141.5 53t-56.5 154q0 59 19.5 103.5t52 68t65.5 34.5t68 11
q54 0 100.5 -29t60.5 -94q4 -20 4 -40q0 -11 -1 -26z" />
    <glyph glyph-name="f" unicode="f" horiz-adv-x="389" 
d="M333 0q-59 4 -134 4t-124 -4v18q85 0 86 26l4 334h-84v22h84v22q0 249 174 249q46 0 94 -24t48 -63q0 -26 -14 -47.5t-43 -21.5q-20 0 -33 15.5t-13 32.5q0 13 9 25t19 16l9 5q-1 25 -25 35.5t-54 10.5q-44 0 -67 -34q-24 -37 -23 -126q0 -42 1 -61t1 -34h95v-22h-95
l6 -334q1 -13 16 -20t33 -7q10 0 30 1v-18z" />
    <glyph glyph-name="g" unicode="g" horiz-adv-x="477" 
d="M442 338q-12 0 -27.5 19t-19.5 19q-25 0 -38 -16l12 -9q10 -9 20 -33t10 -55q0 -70 -51.5 -110.5t-107.5 -40.5q-27 0 -55 9l-27 8l-11 -4q-10 -5 -20 -15.5t-11 -20.5q1 -33 65 -33q88 0 124 -7q63 -11 96 -36t33 -85q0 -75 -65.5 -118.5t-163.5 -43.5q-83 0 -123.5 31
t-40.5 75q0 36 29.5 60t86.5 45h-5h-5q-29 0 -55 21t-26 59q0 20 13 38.5t25.5 26t32.5 17.5q-4 3 -14.5 15.5t-22 26t-19.5 35.5t-8 44q0 56 45 100t113 44q33 0 61.5 -7t40.5 -14l12 -7q46 41 80 41q47 0 47 -38q0 -41 -30 -41zM325 261q0 59 -28 92.5t-61 33.5
q-30 0 -57 -36t-27 -88q0 -56 23.5 -95t63.5 -39q37 0 61.5 32t24.5 100zM368 -118q0 57 -38.5 75t-144.5 18l-17 -8q-18 -7 -36.5 -31t-18.5 -57q0 -36 27 -66t82 -30q70 0 108 29.5t38 69.5z" />
    <glyph glyph-name="h" unicode="h" horiz-adv-x="563" 
d="M61 635h1q81 0 145 22l-2 -350q15 25 23.5 35t25.5 28.5t38.5 27t49.5 8.5q36 0 64 -17t42 -42t20.5 -48.5t6.5 -40.5v-102.5v-94.5v-24q0 -9 14 -14t22.5 -5.5t31.5 -1.5v-16q-42 4 -108 4q-69 0 -107 -4v16q6 1 14.5 1t17.5 1t16.5 3.5t12 6t4.5 8.5v1v238q0 92 -68 93
q-41 0 -64.5 -19.5t-55.5 -66.5v-245q0 -10 12.5 -15t28 -5t28.5 -1v-16q-45 4 -111 4q-63 0 -102 -4v16q18 0 41 6t23 15q0 37 1.5 155t1.5 186q0 143 -3 220q-7 7 -17 11t-17.5 5t-29.5 4v17z" />
    <glyph glyph-name="i" unicode="i" horiz-adv-x="313" 
d="M170 641q23 0 42 -16.5t19 -38.5q0 -27 -17.5 -44.5t-43.5 -17.5q-19 0 -37 16t-18 40q0 25 17.5 43t37.5 18zM216 422q-2 -173 -2 -385q4 -20 70 -21v-16q-41 3 -109 3q-65 0 -104 -3v16q60 2 63 21v336q-31 10 -63 10v16q90 5 145 23z" />
    <glyph glyph-name="j" unicode="j" horiz-adv-x="317" 
d="M223 422q-2 -173 -2 -436q0 -84 -51.5 -139.5t-101.5 -55.5q-33 0 -66.5 20t-33.5 51q0 39 16.5 57.5t40.5 18.5q18 0 30.5 -14t12.5 -32q0 -39 -32 -47q3 -11 16.5 -17.5t26.5 -6.5q40 0 55 28q7 13 7 137v387q-10 4 -19 5.5t-22 2.5t-22 2v16q49 0 145 23zM193 641
q19 0 35 -18.5t16 -36.5q0 -19 -17 -41.5t-37 -22.5q-30 0 -47.5 16t-17.5 48q0 25 22 40t46 15z" />
    <glyph glyph-name="k" unicode="k" horiz-adv-x="533" 
d="M199 197l-15 -17q-2 -32 -2 -78q0 -29 1 -50q1 -12 10 -20q8 -8 17.5 -11t43.5 -5v-16q-38 3 -104 3q-71 0 -119 -3v16q73 4 73 21q3 93 4 303q0 171 -4 268q-12 18 -73 21v16h5q54 0 150 23l-3 -462l101 115q14 17 14 32q0 17 -23 21q0 3 0.5 10.5t0.5 10.5h168v-19
q-83 -8 -116 -40l-80 -98q33 -34 68 -74.5t74 -80.5q40 -40 63.5 -55.5t44.5 -15.5h5v-14l-138 -2q-12 23 -43.5 61.5t-62.5 72.5t-60 67z" />
    <glyph glyph-name="l" unicode="l" horiz-adv-x="272" 
d="M195 657q-4 -96 -5 -216q0 -48 1.5 -179.5t1.5 -224.5q2 -10 27 -15t42 -6v-16q-44 5 -105 5q-71 0 -116 -5v16q66 3 68 21q3 95 3 263q0 179 -3 298q-25 20 -68 20v17q53 3 154 22z" />
    <glyph glyph-name="m" unicode="m" horiz-adv-x="813" 
d="M327 406q103 0 126 -97q20 32 34.5 49.5t39.5 32.5t56 15q132 0 132 -159v-205q0 -13 12 -18.5t31.5 -6t23.5 -1.5v-16q-29 3 -93 3q-69 0 -122 -3v16q66 6 66 21q1 0 1 228q0 55 -15 79t-54 24q-28 0 -54 -19t-38 -38l-12 -19v-255q0 -8 24 -14t45 -7v-16q-42 3 -109 3
q-73 0 -116 -3v16q66 3 66 21v229q0 56 -12 79t-50 23q-25 0 -57.5 -28.5t-46.5 -68.5v-234q0 -18 69 -21v-16q-56 3 -120 3q-57 0 -93 -3v16q16 -1 40 2.5t24 18.5q3 133 3 208q0 83 -3 128q-1 11 -37 11q-13 0 -27 -1v16q11 -1 23 -1q62 0 112 21l13 -107q9 13 17 26
t19 25.5t22.5 21.5t27 15t32.5 6z" />
    <glyph glyph-name="n" unicode="n" horiz-adv-x="575" 
d="M66 389q9 -1 19 -1q56 0 118 20l8 -99q63 96 135 97q34 0 60.5 -11t41.5 -27.5t24.5 -38.5t13 -41.5t3.5 -39.5v-205q0 -10 24 -18.5t42 -8.5v-16q-101 4 -125 4q-51 0 -90 -4v16q20 1 43 9t23 17q1 0 1 203q0 55 -19.5 89t-58.5 34q-32 0 -69 -31t-51 -76v-223
q0 -16 70 -22v-16q-41 3 -109 3q-65 0 -104 -3v16q20 0 41.5 8t21.5 18q2 61 2 161q0 95 -2 156q-19 10 -63 14v16z" />
    <glyph glyph-name="o" unicode="o" horiz-adv-x="486" 
d="M264 8q54 0 84 50t30 144q0 78 -32 136.5t-84 58.5q-35 0 -60 -19t-36.5 -51.5t-17 -64.5t-5.5 -67q0 -83 32 -135t89 -52zM253 417q89 0 151 -62t62 -142q0 -97 -52 -163.5t-153 -66.5q-210 0 -210 229q0 89 62 147t140 58z" />
    <glyph glyph-name="p" unicode="p" horiz-adv-x="520" 
d="M197 292l-9 -104l1 -121q40 -45 108 -45q42 0 64 45.5t22 126.5q0 82 -21 129.5t-59 47.5q-67 0 -106 -79zM31 398q78 0 150 19l14 -92q27 43 57 67t75 24q65 0 113.5 -61.5t48.5 -142.5q0 -88 -51 -153t-147 -65q-59 0 -103 46l1 -220q7 -11 36 -18t53 -7l-2 -14
q-50 3 -127 3t-116 -3v14q70 2 70 25q4 119 5 320q0 140 -3 222q-41 19 -74 21v15z" />
    <glyph glyph-name="q" unicode="q" horiz-adv-x="520" 
d="M362 309q-41 83 -106 83q-40 0 -64 -55.5t-24 -139.5q0 -80 21.5 -126.5t62.5 -46.5q26 0 49 12t34 25.5t21 29.5l12 17v113zM453 406q0 -106 -2 -319.5t-2 -266.5q0 -22 71 -24v-14q-109 5 -129 5q-48 0 -91 -5l3 14q58 0 64 24l1 251q-61 -85 -135 -85q-78 0 -125 58.5
t-47 154.5q0 32 12.5 67.5t35 69.5t63 56t89.5 22q29 0 61 -28t53 -59q12 9 28 33.5t16 40.5z" />
    <glyph glyph-name="r" unicode="r" horiz-adv-x="432" 
d="M339 416q38 0 58.5 -22.5t20.5 -64.5q0 -25 -17 -46t-39 -21q-16 0 -33 14t-18 33q0 22 29 42q-3 9 -10.5 18t-23.5 9q-28 0 -53.5 -30.5t-36.5 -60.5l-11 -31l2 -214q1 -20 69 -26v-16q-42 3 -109 3q-63 0 -104 -3v16q15 1 39.5 10t24.5 16v331q-13 8 -64 10l-2 16
q57 0 136 20l11 -120q16 43 49 80t82 37z" />
    <glyph glyph-name="s" unicode="s" horiz-adv-x="399" 
d="M199 -13q-20 0 -48 10t-47 19l-17 11l-5 -29h-19l-2 140l17 -2q5 -49 36 -89.5t85 -40.5q94 0 94 76q0 55 -119 98q-51 18 -78.5 43t-27.5 68q0 60 41 94.5t108 34.5q29 0 52.5 -10t32.5 -19l9 -10l3 30h19l-2 -126h-18q-2 14 -3 21.5t-5 25t-11 27.5t-18 21.5t-29 17
t-40 5.5q-31 0 -50.5 -19.5t-19.5 -49.5q0 -17 7.5 -30.5t21 -23t26.5 -15t33 -12.5t30 -11q110 -49 110 -120q0 -72 -40 -103.5t-126 -31.5z" />
    <glyph glyph-name="t" unicode="t" horiz-adv-x="387" 
d="M324 386h-106v-272q0 -43 13.5 -69t36.5 -26q26 0 43.5 21t32.5 63l22 -11q-9 -24 -16 -37t-20 -30t-32 -24.5t-46 -7.5q-60 0 -90 34q-14 15 -20 42.5t-6 80.5v236h-84v13q24 0 58.5 13.5t47.5 29.5q13 17 26 48.5t13 62.5h23q-4 -32 -4 -98v-22v-23l114 2z" />
    <glyph glyph-name="u" unicode="u" horiz-adv-x="555" 
d="M61 395q88 0 145 11l-2 -274q2 -115 54 -115q29 0 56 20.5t44 44.5t27 45l10 20v220q-19 12 -59 12v16q94 0 147 11l-8 -199v-50l1 -129q12 -10 61 -12v-12q-76 -4 -137 -19l-7 109l-12 -16q-12 -16 -31 -36t-48 -36.5t-56 -16.5q-69 0 -97 36t-28 105l-1 241
q-16 8 -59 8v16z" />
    <glyph glyph-name="v" unicode="v" horiz-adv-x="552" 
d="M260 395l-2 -14q-54 0 -54 -29q0 -6 3 -14l108 -266l99 266q3 8 3 15q0 11 -10.5 18t-20 8t-26.5 2l2 14q26 -3 75 -3q53 0 85 3l-2 -14q-34 0 -48.5 -12t-27.5 -43l-127 -336h-53l-155 350q-10 23 -26.5 31t-51.5 10l2 14q100 -5 136 -5q52 0 91 5z" />
    <glyph glyph-name="w" unicode="w" horiz-adv-x="791" 
d="M470 396l22 -74l78 -250l93 267q1 4 1 8q0 16 -20 26t-39 11l2 14q34 -5 80 -5q47 0 79 5l-2 -14q-29 -2 -50.5 -18t-28.5 -37l-117 -339h-47l-109 299l-116 -299h-46l-116 332q-17 53 -97 57l2 16q67 -3 132 -3q63 0 103 3l-2 -14h-2q-15 0 -32.5 -11.5t-17.5 -25.5
q0 -3 1 -6l78 -266l98 252l23 72h50z" />
    <glyph glyph-name="x" unicode="x" horiz-adv-x="540" 
d="M307 -2v14q24 0 37 7.5t13 14.5q0 4 -2 8t-5.5 9t-5.5 9l-78 109l-77 -95q-15 -18 -15 -34q0 -28 53 -28l-2 -14q-37 3 -89 3t-91 -3l2 14q31 0 57.5 15.5t54.5 47.5l97 111l-111 152q-7 11 -18 20l-11 11q-14 8 -21 9.5t-29 2.5v14q48 -5 107 -5q61 0 101 5l-2 -14
q-23 0 -32.5 -6t-9.5 -14q0 -7 3 -15l5 -8l69 -104l77 96q9 11 9 24q0 27 -47 27l2 14q35 -3 77 -3q47 0 75 3l-2 -14q-28 0 -43 -7q-19 -9 -38 -32l-98 -121l107 -145q18 -27 41 -43q27 -19 59 -21l-4 -14q-57 3 -119 3q-61 0 -96 -3z" />
    <glyph glyph-name="y" unicode="y" horiz-adv-x="548" 
d="M260 395l-2 -14q-24 0 -33.5 -5t-9.5 -21q0 -9 6 -27l101 -256l108 250q7 17 7 29q0 11 -5.5 18t-18 9.5t-21.5 3t-26 0.5l2 14q35 -4 90 -4t80 5l-2 -14q-39 0 -48 -8q-14 -13 -32 -60l-180 -428q-22 -53 -57 -84q-39 -33 -91 -32q-34 0 -65.5 22.5t-31.5 54.5t16 47.5
t38 15.5q25 0 45 -12.5t20 -36.5q0 -35 -40 -51q14 -11 42 -12q16 0 50 30q39 37 78 154l-153 353q-10 26 -35 35q-17 6 -57 10v14q43 -3 105 -3q75 0 120 3z" />
    <glyph glyph-name="z" unicode="z" horiz-adv-x="465" 
d="M89 399l349 2l4 -20q-259 -304 -275 -353l163 3q33 1 56.5 33.5t26.5 92.5h18l-11 -157h-350l-3 41q39 45 159.5 189.5t121.5 146.5l-196 -3q-19 0 -29.5 -20t-12 -44.5t-5.5 -46.5h-21z" />
    <glyph glyph-name="braceleft" unicode="{" horiz-adv-x="282" 
d="M103 264h-80v39h80v381h159v-22h-96v-766h96v-27h-159v395z" />
    <glyph glyph-name="bar" unicode="|" horiz-adv-x="309" 
d="M127 734h55v-888h-55v888z" />
    <glyph glyph-name="braceright" unicode="}" horiz-adv-x="282" 
d="M190 684v-381h77v-39h-77v-395h-158v27h96v766h-96v22h158z" />
    <glyph glyph-name="nbspace" unicode="&#xa0;" horiz-adv-x="276" 
 />
    <glyph glyph-name="exclamdown" unicode="&#xa1;" horiz-adv-x="425" 
d="M242 389l30 -371v-2q0 -29 -67 -28q-32 0 -43.5 6.5t-11.5 20.5q0 47 55 372v2h37zM225 474q-28 0 -44.5 20t-16.5 42q0 20 17.5 41t40.5 21q60 0 61 -62q-1 -62 -58 -62z" />
    <glyph glyph-name="sterling" unicode="&#xa3;" 
d="M133 73q-13 0 -24 -12.5t-11 -37.5q0 -45 49 -46q45 0 67 29q-31 37 -46 49q-22 18 -35 18zM137 217h-82v33l65 1q-10 26 -10 54q0 78 54.5 118t123.5 40q71 0 114 -34.5t48 -95.5l-33 -5q-18 103 -123 103q-46 0 -72.5 -28.5t-26.5 -81.5q0 -30 29 -68l188 3v-40h-157
q23 -26 33 -41l124 1v-40l-109 1q1 -5 1 -10q0 -30 -6.5 -51t-17 -31.5t-21.5 -26.5q43 -35 98 -34q45 0 75 25t30 71v7.5t-0.5 9t-0.5 5.5l32 9q0 -6 2 -17.5t2 -17.5q0 -170 -122 -170q-59 0 -150 85q-22 -26 -46 -39q-27 -14 -51 -14q-40 0 -61 27t-21 51q0 35 22.5 61.5
t65.5 26.5q50 0 102 -66q10 15 10 39q0 23 -6.5 36t-20.5 25l-164 2v33l121 1q-24 21 -39 43z" />
    <glyph glyph-name="currency" unicode="&#xa4;" 
d="M224 59q0 -49 35 -49h89q26 1 57.5 50t36.5 92h23l-24 -161h-402v16l41 6q40 6 41 17q4 31 7 173h-89v45h90v54h-90v45h91v18q0 125 -4 138q-2 11 -38 19l-36 7v18q106 -3 205.5 -3t181.5 3l3 -145h-19q-5 25 -15 48.5t-34 47t-55 23.5h-95v-174h179v-45h-179v-54h179
v-45h-179v-144z" />
    <glyph glyph-name="brokenbar" unicode="&#xa6;" horiz-adv-x="309" 
d="M127 734h55v-349h-55v349zM182 210v-364h-55v364h55z" />
    <glyph glyph-name="section" unicode="&#xa7;" horiz-adv-x="372" 
d="M146 189q-43 13 -71.5 45t-28.5 77q0 60 41 94.5t109 34.5q29 0 51.5 -9.5t31.5 -18.5l9 -11l3 30h30l-9 -126h-22q-2 19 -3 27.5t-8 29.5t-17 31.5t-30 20.5t-47 10q-70 0 -69 -70q0 -17 5.5 -30t18.5 -20.5t22.5 -11.5t30.5 -10.5t29 -9.5q65 -23 96.5 -49.5
t31.5 -74.5q0 -106 -97 -133q48 -19 72.5 -45t24.5 -67q0 -142 -173 -143q-20 0 -47 10.5t-43 20.5l-16 10l-12 -28h-16l-4 139l23 -1q5 -49 36 -89.5t84 -40.5q94 0 94 76q0 49 -126 86q-45 13 -74.5 45t-29.5 78q0 48 26.5 80t73.5 43zM276 102q0 44 -94 76
q-32 -1 -49 -20.5t-17 -48.5q0 -20 8 -34.5t21.5 -21t30.5 -12.5t34 -10q66 9 66 71z" />
    <glyph glyph-name="dieresis" unicode="&#xa8;" horiz-adv-x="421" 
d="M98 524q0 15 9.5 25t21.5 10q13 0 23 -9.5t10 -24.5t-9.5 -25t-21.5 -10q-13 0 -23 10t-10 24zM251 524q0 15 9 25t22 10t22 -9.5t9 -24.5t-9 -25t-21 -10q-13 0 -22.5 10t-9.5 24z" />
    <glyph glyph-name="copyright" unicode="&#xa9;" 
d="M265 356q28 0 53 -8.5t33 -17.5q11 6 15 29h15l-1 -99h-15q-10 75 -106 75t-96 -136q0 -63 22 -100.5t79 -37.5q45 0 64 17.5t37 57.5l19 -8q-38 -90 -120 -90q-73 0 -119 41t-46 117q0 58 30 96.5t65 51t71 12.5zM254 447q99 0 169.5 -70t70.5 -169t-70.5 -169.5
t-169.5 -70.5t-169.5 70.5t-70.5 169.5t70.5 169t169.5 70zM254 423q-89 0 -152 -63t-63 -152t63 -152t152 -63t152 63t63 152t-63 152t-152 63z" />
    <glyph glyph-name="guillemotleft" unicode="&#xab;" horiz-adv-x="503" 
d="M458 380v-18l-151 -161v-14l142 -144v-23l-216 163v26zM327 380v-18l-180 -161v-14l170 -144v-23l-259 163v26z" />
    <glyph glyph-name="registered" unicode="&#xae;" 
d="M254 447q99 0 169.5 -70t70.5 -169t-70.5 -169.5t-169.5 -70.5t-169.5 70.5t-70.5 169.5t70.5 169t169.5 70zM254 423q-89 0 -152 -63t-63 -152t63 -152t152 -63t152 63t63 152t-63 152t-152 63zM387 55h-72q-6 58 -10 74q-17 72 -51 73l-32 1l1 -100q0 -18 17 -23l21 -7
l-1 -18q-23 2 -62.5 2t-63.5 -2v18l20 5q18 4 19 11l1 5q1 4 1 11v225q-1 5 -17 10l-18 5v13q29 0 77.5 -1t60.5 -1q30 0 55.5 -20.5t25.5 -54.5q-1 -24 -24.5 -46t-54.5 -23q15 -1 25 -6t17.5 -16t11 -18.5t8.5 -24.5t8 -24q8 -22 13.5 -31.5t9.5 -12t14 -5.5v-19zM310 281
q0 26 -8.5 43.5t-26.5 17.5q-4 0 -12.5 1t-13.5 1h-14h-12v-128l32 -1q30 0 42.5 21t12.5 45z" />
    <glyph glyph-name="acute" unicode="&#xb4;" horiz-adv-x="421" 
d="M118 475l169 145l31 -48l-189 -115z" />
    <glyph glyph-name="guillemotright" unicode="&#xbb;" horiz-adv-x="503" 
d="M58 380l225 -171v-26l-215 -163v23l141 144v14l-151 161v18zM189 380l269 -171v-26l-259 -163v23l170 144v14l-180 161v18z" />
    <glyph glyph-name="questiondown" unicode="&#xbf;" 
d="M120 354l-23 15q35 92 131 92q34 0 70.5 -27.5t36.5 -62.5q0 -60 -54 -93q-17 -9 -39 -24t-40.5 -30.5t-30.5 -39t-12 -51.5q0 -60 31 -96.5t81 -36.5q34 0 65 33t36 63q-65 4 -65 54q0 27 17 44t48 17q33 0 49.5 -25.5t16.5 -54.5q0 -43 -52.5 -98t-121.5 -55
q-30 0 -62 8t-65 25.5t-54 51t-21 78.5q0 80 95 127q2 1 20.5 9t32.5 15.5t32 20t28.5 28t10.5 33.5q0 67 -55 66q-41 0 -67.5 -24.5t-38.5 -61.5zM290 590q0 -27 -17 -42.5t-43.5 -15.5t-42 15t-15.5 43q0 27 17 42.5t43.5 15.5t42 -15t15.5 -43z" />
    <glyph glyph-name="Agrave" unicode="&#xc0;" horiz-adv-x="734" 
d="M271 792l29 34l157 -144l-23 -15zM429 276h-201l-95 -223q-3 -5 -3 -10q0 -14 22 -22.5t44 -8.5l1 -16l-197 -1v20h2q19 0 41 8.5t35 23.5q17 20 141 303l124 282h33l219 -519q28 -67 61 -83q9 -4 19 -5.5t19 -1.5t13 -1l-2 -25q-67 3 -151 3q-76 0 -123 -3l1 19
q0 -1 18 -1q36 0 50 17q7 8 7 22q0 13 -6 29l-5 15zM240 300h181l-89 216z" />
    <glyph glyph-name="Aacute" unicode="&#xc1;" horiz-adv-x="734" 
d="M270 684l169 145l31 -48l-189 -115zM429 276h-201l-95 -223q-3 -5 -3 -10q0 -14 22 -22.5t44 -8.5l1 -16l-197 -1v20h2q19 0 41 8.5t35 23.5q17 20 141 303l124 282h33l219 -519q28 -67 61 -83q9 -4 19 -5.5t19 -1.5t13 -1l-2 -25q-67 3 -151 3q-76 0 -123 -3l1 19
q0 -1 18 -1q36 0 50 17q7 8 7 22q0 13 -6 29l-5 15zM240 300h181l-89 216z" />
    <glyph glyph-name="Acircumflex" unicode="&#xc2;" horiz-adv-x="734" 
d="M234 673l138 151l123 -148l-14 -12l-112 104l-121 -104zM429 276h-201l-95 -223q-3 -5 -3 -10q0 -14 22 -22.5t44 -8.5l1 -16l-197 -1v20h2q19 0 41 8.5t35 23.5q17 20 141 303l124 282h33l219 -519q28 -67 61 -83q9 -4 19 -5.5t19 -1.5t13 -1l-2 -25q-67 3 -151 3
q-76 0 -123 -3l1 19q0 -1 18 -1q36 0 50 17q7 8 7 22q0 13 -6 29l-5 15zM240 300h181l-89 216z" />
    <glyph glyph-name="Atilde" unicode="&#xc3;" horiz-adv-x="734" 
d="M277 673l-12 1q0 28 19.5 61t48.5 33q18 0 35.5 -15.5t36 -31t38.5 -15.5q31 0 40.5 16.5t9.5 44.5h16q0 -14 -2.5 -29t-9.5 -34.5t-22 -32.5t-38 -13q-19 0 -35.5 11t-26.5 23t-22 22.5t-24 10.5q-19 0 -35.5 -17.5t-16.5 -34.5zM429 276h-201l-95 -223q-3 -5 -3 -10
q0 -14 22 -22.5t44 -8.5l1 -16l-197 -1v20h2q19 0 41 8.5t35 23.5q17 20 141 303l124 282h33l219 -519q28 -67 61 -83q9 -4 19 -5.5t19 -1.5t13 -1l-2 -25q-67 3 -151 3q-76 0 -123 -3l1 19q0 -1 18 -1q36 0 50 17q7 8 7 22q0 13 -6 29l-5 15zM240 300h181l-89 216z" />
    <glyph glyph-name="Adieresis" unicode="&#xc4;" horiz-adv-x="734" 
d="M259 704q0 15 9.5 25t21.5 10q13 0 23 -9.5t10 -24.5t-9.5 -25t-21.5 -10q-13 0 -23 10t-10 24zM412 704q0 15 9 25t22 10t22 -9.5t9 -24.5t-9 -25t-21 -10q-13 0 -22.5 10t-9.5 24zM429 276h-201l-95 -223q-3 -5 -3 -10q0 -14 22 -22.5t44 -8.5l1 -16l-197 -1v20h2
q19 0 41 8.5t35 23.5q17 20 141 303l124 282h33l219 -519q28 -67 61 -83q9 -4 19 -5.5t19 -1.5t13 -1l-2 -25q-67 3 -151 3q-76 0 -123 -3l1 19q0 -1 18 -1q36 0 50 17q7 8 7 22q0 13 -6 29l-5 15zM240 300h181l-89 216z" />
    <glyph glyph-name="Aring" unicode="&#xc5;" horiz-adv-x="734" 
d="M366 878q36 0 60 -23t24 -59t-24 -61t-60 -25t-60 25t-24 60.5t24 59t60 23.5zM315 794q0 -28 14.5 -42.5t36.5 -14.5q49 0 49 57q0 28 -13.5 43.5t-36.5 15.5t-36.5 -15.5t-13.5 -43.5zM429 276h-201l-95 -223q-3 -5 -3 -10q0 -14 22 -22.5t44 -8.5l1 -16l-197 -1v20h2
q19 0 41 8.5t35 23.5q17 20 141 303l124 282h33l219 -519q28 -67 61 -83q9 -4 19 -5.5t19 -1.5t13 -1l-2 -25q-67 3 -151 3q-76 0 -123 -3l1 19q0 -1 18 -1q36 0 50 17q7 8 7 22q0 13 -6 29l-5 15zM240 300h181l-89 216z" />
    <glyph glyph-name="AE" unicode="&#xc6;" horiz-adv-x="911" 
d="M467 321l2 275q-24 -41 -58.5 -96t-101.5 -179h158zM377 0v16l19 2q19 1 40 8.5t23 18.5q4 22 8 252h-169l-130 -223q-1 -1 -6.5 -12t-5.5 -12q0 -30 104 -33l-1 -18l-221 -4v20q51 0 78 32q20 25 338 579q74 -2 143 -2q115 0 231 5l3 -145h-19q-5 25 -15 48.5t-34 47
t-54 23.5h-147q0 -165 2 -282h135q46 0 51 78h23v-179h-19q-5 78 -58 78h-132l-1 -271q104 -6 126 -7q26 0 60 3q24 10 44 50t24 79h23l-10 -152q-71 3 -174 3q-51 0 -279 -3z" />
    <glyph glyph-name="Ccedilla" unicode="&#xc7;" horiz-adv-x="696" 
d="M385 -1l23 -1l-20 -51q54 0 72 -13t18 -39q0 -33 -40 -60.5t-99 -27.5l2 22q47 0 69.5 11.5t22.5 41.5q0 31 -85 31zM395 641q58 0 110.5 -18t68.5 -37q12 8 18.5 17t8 16t4.5 29h32l-3 -207h-20q-13 81 -69.5 126.5t-157.5 45.5q-98 0 -148 -81t-52 -219
q0 -305 214 -305q49 0 86 13.5t63.5 40.5t42 54t33.5 68l23 -18q-78 -188 -250 -189q-152 0 -248 86.5t-96 242.5q0 75 23 135t59 96t82.5 61t90 34t85.5 9zM395 641q58 0 110.5 -18t68.5 -37q12 8 18.5 17t8 16t4.5 29h32l-3 -207h-20q-13 81 -69.5 126.5t-157.5 45.5
q-98 0 -148 -81t-52 -219q0 -305 214 -305q49 0 86 13.5t63.5 40.5t42 54t33.5 68l23 -18q-78 -188 -250 -189q-152 0 -248 86.5t-96 242.5q0 75 23 135t59 96t82.5 61t90 34t85.5 9z" />
    <glyph glyph-name="Egrave" unicode="&#xc8;" horiz-adv-x="583" 
d="M193 782l29 34l157 -144l-23 -15zM513 0h-464v16q0 -1 28 -1q49 0 54 24q9 54 9 386q0 146 -4 160q-2 11 -38 19l-36 7v18q106 -3 236.5 -3t212.5 3l3 -145h-19q-5 25 -15 48.5t-34 47t-55 23.5h-157v-272h148q46 0 50 79h24v-180h-20q-5 78 -57 78h-145v-239
q0 -48 35 -49h151q26 1 50.5 44.5t29.5 87.5h22z" />
    <glyph glyph-name="Eacute" unicode="&#xc9;" horiz-adv-x="583" 
d="M186 668l169 145l31 -48l-189 -115zM513 0h-464v16q0 -1 28 -1q49 0 54 24q9 54 9 386q0 146 -4 160q-2 11 -38 19l-36 7v18q106 -3 236.5 -3t212.5 3l3 -145h-19q-5 25 -15 48.5t-34 47t-55 23.5h-157v-272h148q46 0 50 79h24v-180h-20q-5 78 -57 78h-145v-239
q0 -48 35 -49h151q26 1 50.5 44.5t29.5 87.5h22z" />
    <glyph glyph-name="Ecircumflex" unicode="&#xca;" horiz-adv-x="583" 
d="M183 656l138 151l123 -148l-14 -12l-112 104l-121 -104zM513 0h-464v16q0 -1 28 -1q49 0 54 24q9 54 9 386q0 146 -4 160q-2 11 -38 19l-36 7v18q106 -3 236.5 -3t212.5 3l3 -145h-19q-5 25 -15 48.5t-34 47t-55 23.5h-157v-272h148q46 0 50 79h24v-180h-20q-5 78 -57 78
h-145v-239q0 -48 35 -49h151q26 1 50.5 44.5t29.5 87.5h22z" />
    <glyph glyph-name="Edieresis" unicode="&#xcb;" horiz-adv-x="583" 
d="M204 703q0 15 9.5 25t21.5 10q13 0 23 -9.5t10 -24.5t-9.5 -25t-21.5 -10q-13 0 -23 10t-10 24zM357 703q0 15 9 25t22 10t22 -9.5t9 -24.5t-9 -25t-21 -10q-13 0 -22.5 10t-9.5 24zM513 0h-464v16q0 -1 28 -1q49 0 54 24q9 54 9 386q0 146 -4 160q-2 11 -38 19l-36 7v18
q106 -3 236.5 -3t212.5 3l3 -145h-19q-5 25 -15 48.5t-34 47t-55 23.5h-157v-272h148q46 0 50 79h24v-180h-20q-5 78 -57 78h-145v-239q0 -48 35 -49h151q26 1 50.5 44.5t29.5 87.5h22z" />
    <glyph glyph-name="Igrave" unicode="&#xcc;" horiz-adv-x="376" 
d="M113 773l29 34l157 -144l-23 -15zM245 583q0 -1 -0.5 -56t-1 -137.5t-0.5 -150.5q0 -136 2 -194q1 -29 76 -29l1 -16q-32 1 -79 1q-108 0 -184 -4v16h4q74 0 78 23q5 30 5 549q0 11 -36 19l-37 7v15q47 -4 121 -4q77 0 120 4v-20q-69 -5 -69 -23z" />
    <glyph glyph-name="Iacute" unicode="&#xcd;" horiz-adv-x="376" 
d="M118 664l169 145l31 -48l-189 -115zM245 583q0 -1 -0.5 -56t-1 -137.5t-0.5 -150.5q0 -136 2 -194q1 -29 76 -29l1 -16q-32 1 -79 1q-108 0 -184 -4v16h4q74 0 78 23q5 30 5 549q0 11 -36 19l-37 7v15q47 -4 121 -4q77 0 120 4v-20q-69 -5 -69 -23z" />
    <glyph glyph-name="Icircumflex" unicode="&#xce;" horiz-adv-x="376" 
d="M64 650l138 151l123 -148l-14 -12l-112 104l-121 -104zM245 583q0 -1 -0.5 -56t-1 -137.5t-0.5 -150.5q0 -136 2 -194q1 -29 76 -29l1 -16q-32 1 -79 1q-108 0 -184 -4v16h4q74 0 78 23q5 30 5 549q0 11 -36 19l-37 7v15q47 -4 121 -4q77 0 120 4v-20q-69 -5 -69 -23z
" />
    <glyph glyph-name="Idieresis" unicode="&#xcf;" horiz-adv-x="376" 
d="M94 700q0 15 9.5 25t21.5 10q13 0 23 -9.5t10 -24.5t-9.5 -25t-21.5 -10q-13 0 -23 10t-10 24zM247 700q0 15 9 25t22 10t22 -9.5t9 -24.5t-9 -25t-21 -10q-13 0 -22.5 10t-9.5 24zM245 583q0 -1 -0.5 -56t-1 -137.5t-0.5 -150.5q0 -136 2 -194q1 -29 76 -29l1 -16
q-32 1 -79 1q-108 0 -184 -4v16h4q74 0 78 23q5 30 5 549q0 11 -36 19l-37 7v15q47 -4 121 -4q77 0 120 4v-20q-69 -5 -69 -23z" />
    <glyph glyph-name="Eth" unicode="&#xd0;" horiz-adv-x="671" 
 />
    <glyph glyph-name="Ntilde" unicode="&#xd1;" horiz-adv-x="687" 
d="M231 669l-12 1q0 28 19.5 61t48.5 33q18 0 35.5 -15.5t36 -31t38.5 -15.5q31 0 40.5 16.5t9.5 44.5h16q0 -14 -2.5 -29t-9.5 -34.5t-22 -32.5t-38 -13q-19 0 -35.5 11t-26.5 23t-22 22.5t-24 10.5q-19 0 -35.5 -17.5t-16.5 -34.5zM667 604q-14 -1 -31.5 -3.5t-37.5 -9.5
t-20 -18q-2 -33 -3 -184l3 -400h-35l-191 261q-190 261 -201 272q-1 -85 -1 -139q0 -68 2.5 -130t2.5 -154v-40q0 -41 35 -41q57 0 58 -2v-18q-49 3 -111 3q-69 0 -117 -4v16h6q82 0 87 23q5 298 5 349q0 77 -2 178q-2 11 -47 30l-45 18v18l185 -1q59 -82 194 -258l137 -176
l1 379q-1 14 -25 22.5t-57 8.5h-15l-2 23q42 -5 104 -5q57 0 121 4v-22z" />
    <glyph glyph-name="Ograve" unicode="&#xd2;" horiz-adv-x="792" 
d="M334 787l29 34l157 -144l-23 -15zM416 8q94 0 153.5 85.5t59.5 218.5q0 158 -58 240t-163 82q-50 0 -89.5 -14t-75.5 -47t-55.5 -99.5t-19.5 -162.5q0 -36 6.5 -73.5t24.5 -79.5t44.5 -74.5t71.5 -54t101 -21.5zM416 651q36 0 75 -8t86 -31.5t82.5 -59.5t59.5 -98.5
t24 -141.5q0 -77 -30.5 -140t-79.5 -102.5t-106 -60.5t-113 -21q-151 0 -258 86.5t-107 229.5q0 82 23.5 145t60.5 100.5t87.5 61t98 32t97.5 8.5z" />
    <glyph glyph-name="Oacute" unicode="&#xd3;" horiz-adv-x="792" 
d="M313 681l169 145l31 -48l-189 -115zM416 8q94 0 153.5 85.5t59.5 218.5q0 158 -58 240t-163 82q-50 0 -89.5 -14t-75.5 -47t-55.5 -99.5t-19.5 -162.5q0 -36 6.5 -73.5t24.5 -79.5t44.5 -74.5t71.5 -54t101 -21.5zM416 651q36 0 75 -8t86 -31.5t82.5 -59.5t59.5 -98.5
t24 -141.5q0 -77 -30.5 -140t-79.5 -102.5t-106 -60.5t-113 -21q-151 0 -258 86.5t-107 229.5q0 82 23.5 145t60.5 100.5t87.5 61t98 32t97.5 8.5z" />
    <glyph glyph-name="Ocircumflex" unicode="&#xd4;" horiz-adv-x="792" 
d="M275 663l138 151l123 -148l-14 -12l-112 104l-121 -104zM416 8q94 0 153.5 85.5t59.5 218.5q0 158 -58 240t-163 82q-50 0 -89.5 -14t-75.5 -47t-55.5 -99.5t-19.5 -162.5q0 -36 6.5 -73.5t24.5 -79.5t44.5 -74.5t71.5 -54t101 -21.5zM416 651q36 0 75 -8t86 -31.5
t82.5 -59.5t59.5 -98.5t24 -141.5q0 -77 -30.5 -140t-79.5 -102.5t-106 -60.5t-113 -21q-151 0 -258 86.5t-107 229.5q0 82 23.5 145t60.5 100.5t87.5 61t98 32t97.5 8.5z" />
    <glyph glyph-name="Otilde" unicode="&#xd5;" horiz-adv-x="792" 
d="M337 667l-12 1q0 28 19.5 61t48.5 33q18 0 35.5 -15.5t36 -31t38.5 -15.5q31 0 40.5 16.5t9.5 44.5h16q0 -14 -2.5 -29t-9.5 -34.5t-22 -32.5t-38 -13q-19 0 -35.5 11t-26.5 23t-22 22.5t-24 10.5q-19 0 -35.5 -17.5t-16.5 -34.5zM416 8q94 0 153.5 85.5t59.5 218.5
q0 158 -58 240t-163 82q-50 0 -89.5 -14t-75.5 -47t-55.5 -99.5t-19.5 -162.5q0 -36 6.5 -73.5t24.5 -79.5t44.5 -74.5t71.5 -54t101 -21.5zM416 651q36 0 75 -8t86 -31.5t82.5 -59.5t59.5 -98.5t24 -141.5q0 -77 -30.5 -140t-79.5 -102.5t-106 -60.5t-113 -21
q-151 0 -258 86.5t-107 229.5q0 82 23.5 145t60.5 100.5t87.5 61t98 32t97.5 8.5z" />
    <glyph glyph-name="Odieresis" unicode="&#xd6;" horiz-adv-x="792" 
d="M303 699q0 15 9.5 25t21.5 10q13 0 23 -9.5t10 -24.5t-9.5 -25t-21.5 -10q-13 0 -23 10t-10 24zM456 699q0 15 9 25t22 10t22 -9.5t9 -24.5t-9 -25t-21 -10q-13 0 -22.5 10t-9.5 24zM416 8q94 0 153.5 85.5t59.5 218.5q0 158 -58 240t-163 82q-50 0 -89.5 -14t-75.5 -47
t-55.5 -99.5t-19.5 -162.5q0 -36 6.5 -73.5t24.5 -79.5t44.5 -74.5t71.5 -54t101 -21.5zM416 651q36 0 75 -8t86 -31.5t82.5 -59.5t59.5 -98.5t24 -141.5q0 -77 -30.5 -140t-79.5 -102.5t-106 -60.5t-113 -21q-151 0 -258 86.5t-107 229.5q0 82 23.5 145t60.5 100.5t87.5 61
t98 32t97.5 8.5z" />
    <glyph glyph-name="multiply" unicode="&#xd7;" 
d="M390 63l-130 131l-129 -131l-44 43l130 131l-130 130l44 43l129 -130l130 130l44 -43l-130 -130l130 -131z" />
    <glyph glyph-name="Oslash" unicode="&#xd8;" horiz-adv-x="792" 
d="M416 8q94 0 153.5 85.5t59.5 218.5q0 158 -58 240t-163 82q-50 0 -89.5 -14t-75.5 -47t-55.5 -99.5t-19.5 -162.5q0 -36 6.5 -73.5t24.5 -79.5t44.5 -74.5t71.5 -54t101 -21.5zM416 651q36 0 75 -8t86 -31.5t82.5 -59.5t59.5 -98.5t24 -141.5q0 -77 -30.5 -140
t-79.5 -102.5t-106 -60.5t-113 -21q-151 0 -258 86.5t-107 229.5q0 82 23.5 145t60.5 100.5t87.5 61t98 32t97.5 8.5z" />
    <glyph glyph-name="Ugrave" unicode="&#xd9;" horiz-adv-x="762" 
d="M287 776l29 34l157 -144l-23 -15zM240 218q0 -54 10.5 -93.5t26.5 -61t40.5 -34t45.5 -16t49 -3.5q39 0 67.5 10t52.5 33t36.5 66.5t12.5 107.5v27.5v44.5q0 138 -4 286q-2 11 -43 19l-41 7v15q47 -4 109 -4q66 0 110 4v-20q-47 -3 -88 -23q-3 -63 -3 -153l3 -191
q0 -121 -58 -187.5t-172 -70.5q-35 0 -69 6.5t-70 23.5t-62.5 43.5t-44 70t-17.5 98.5q0 3 1.5 32.5t3.5 84.5t2 122q0 61 -2 123q-2 11 -43 19l-41 7v15q47 -4 131 -4q90 0 134 4v-20q-59 -5 -77 -23q-1 -66 -1 -160z" />
    <glyph glyph-name="Uacute" unicode="&#xda;" horiz-adv-x="762" 
d="M345 668l169 145l31 -48l-189 -115zM240 218q0 -54 10.5 -93.5t26.5 -61t40.5 -34t45.5 -16t49 -3.5q39 0 67.5 10t52.5 33t36.5 66.5t12.5 107.5v27.5v44.5q0 138 -4 286q-2 11 -43 19l-41 7v15q47 -4 109 -4q66 0 110 4v-20q-47 -3 -88 -23q-3 -63 -3 -153l3 -191
q0 -121 -58 -187.5t-172 -70.5q-35 0 -69 6.5t-70 23.5t-62.5 43.5t-44 70t-17.5 98.5q0 3 1.5 32.5t3.5 84.5t2 122q0 61 -2 123q-2 11 -43 19l-41 7v15q47 -4 131 -4q90 0 134 4v-20q-59 -5 -77 -23q-1 -66 -1 -160z" />
    <glyph glyph-name="Ucircumflex" unicode="&#xdb;" horiz-adv-x="762" 
d="M275 664l138 151l123 -148l-14 -12l-112 104l-121 -104zM240 218q0 -54 10.5 -93.5t26.5 -61t40.5 -34t45.5 -16t49 -3.5q39 0 67.5 10t52.5 33t36.5 66.5t12.5 107.5v27.5v44.5q0 138 -4 286q-2 11 -43 19l-41 7v15q47 -4 109 -4q66 0 110 4v-20q-47 -3 -88 -23
q-3 -63 -3 -153l3 -191q0 -121 -58 -187.5t-172 -70.5q-35 0 -69 6.5t-70 23.5t-62.5 43.5t-44 70t-17.5 98.5q0 3 1.5 32.5t3.5 84.5t2 122q0 61 -2 123q-2 11 -43 19l-41 7v15q47 -4 131 -4q90 0 134 4v-20q-59 -5 -77 -23q-1 -66 -1 -160z" />
    <glyph glyph-name="Udieresis" unicode="&#xdc;" horiz-adv-x="762" 
d="M303 699q0 15 9.5 25t21.5 10q13 0 23 -9.5t10 -24.5t-9.5 -25t-21.5 -10q-13 0 -23 10t-10 24zM456 699q0 15 9 25t22 10t22 -9.5t9 -24.5t-9 -25t-21 -10q-13 0 -22.5 10t-9.5 24zM240 218q0 -54 10.5 -93.5t26.5 -61t40.5 -34t45.5 -16t49 -3.5q39 0 67.5 10t52.5 33
t36.5 66.5t12.5 107.5v27.5v44.5q0 138 -4 286q-2 11 -43 19l-41 7v15q47 -4 109 -4q66 0 110 4v-20q-47 -3 -88 -23q-3 -63 -3 -153l3 -191q0 -121 -58 -187.5t-172 -70.5q-35 0 -69 6.5t-70 23.5t-62.5 43.5t-44 70t-17.5 98.5q0 3 1.5 32.5t3.5 84.5t2 122q0 61 -2 123
q-2 11 -43 19l-41 7v15q47 -4 131 -4q90 0 134 4v-20q-59 -5 -77 -23q-1 -66 -1 -160z" />
    <glyph glyph-name="Yacute" unicode="&#xdd;" horiz-adv-x="645" 
d="M284 678l169 145l31 -48l-189 -115zM286 247q-68 159 -171 302q-23 32 -45 43q-25 12 -57 19v15q47 -4 139 -4q98 0 142 4v-20q-56 -5 -64 -17q-5 -10 -7 -24l-2 -12q68 -132 139 -252q145 259 146 273q0 14 -23 21l-60 16v15q47 -4 105 -4q59 0 104 4v-20
q-41 -2 -67 -17q-9 -6 -24 -22l-15 -16q-118 -204 -145 -262q0 -38 4 -254q0 -25 82 -25v-19h-272v16h11q74 0 75 23q2 117 5 217z" />
    <glyph glyph-name="agrave" unicode="&#xe0;" horiz-adv-x="435" 
d="M119 587l29 34l157 -144l-23 -15zM453 83l15 -9q-13 -81 -96 -81q-34 0 -51 22.5t-20 53.5q-20 -23 -30.5 -33t-39.5 -27.5t-58 -17.5q-50 0 -86 28t-36 89q0 27 11.5 47t32 32.5t41.5 20.5t49 11.5t46.5 4.5t41 1.5t24.5 0.5q3 0 3 74q0 95 -87 95q-30 0 -48 -13
t-22 -31q29 0 29 -44q0 -27 -18 -38.5t-35 -11.5q-19 0 -34 17.5t-15 38.5q0 37 47 72q38 29 105 29q63 0 112 -39t49 -106q0 -33 -2 -92t-2 -85q0 -67 31 -66q18 0 27 13t16 44zM297 94v118q-35 -3 -64.5 -6.5t-50.5 -11t-33 -25.5t-12 -50q0 -43 21.5 -63t54.5 -20
q52 0 84 58z" />
    <glyph glyph-name="aacute" unicode="&#xe1;" horiz-adv-x="435" 
d="M453 83l15 -9q-13 -81 -96 -81q-34 0 -51 22.5t-20 53.5q-20 -23 -30.5 -33t-39.5 -27.5t-58 -17.5q-50 0 -86 28t-36 89q0 27 11.5 47t32 32.5t41.5 20.5t49 11.5t46.5 4.5t41 1.5t24.5 0.5q3 0 3 74q0 95 -87 95q-30 0 -48 -13t-22 -31q29 0 29 -44q0 -27 -18 -38.5
t-35 -11.5q-19 0 -34 17.5t-15 38.5q0 37 47 72q38 29 105 29q63 0 112 -39t49 -106q0 -33 -2 -92t-2 -85q0 -67 31 -66q18 0 27 13t16 44zM297 94v118q-35 -3 -64.5 -6.5t-50.5 -11t-33 -25.5t-12 -50q0 -43 21.5 -63t54.5 -20q52 0 84 58zM136 475l169 145l31 -48
l-189 -115z" />
    <glyph glyph-name="acircumflex" unicode="&#xe2;" horiz-adv-x="435" 
d="M90 453l138 151l123 -148l-14 -12l-112 104l-121 -104zM453 83l15 -9q-13 -81 -96 -81q-34 0 -51 22.5t-20 53.5q-20 -23 -30.5 -33t-39.5 -27.5t-58 -17.5q-50 0 -86 28t-36 89q0 27 11.5 47t32 32.5t41.5 20.5t49 11.5t46.5 4.5t41 1.5t24.5 0.5q3 0 3 74q0 95 -87 95
q-30 0 -48 -13t-22 -31q29 0 29 -44q0 -27 -18 -38.5t-35 -11.5q-19 0 -34 17.5t-15 38.5q0 37 47 72q38 29 105 29q63 0 112 -39t49 -106q0 -33 -2 -92t-2 -85q0 -67 31 -66q18 0 27 13t16 44zM297 94v118q-35 -3 -64.5 -6.5t-50.5 -11t-33 -25.5t-12 -50q0 -43 21.5 -63
t54.5 -20q52 0 84 58z" />
    <glyph glyph-name="atilde" unicode="&#xe3;" horiz-adv-x="435" 
d="M140 461l-12 1q0 28 19.5 61t48.5 33q18 0 35.5 -15.5t36 -31t38.5 -15.5q31 0 40.5 16.5t9.5 44.5h16q0 -14 -2.5 -29t-9.5 -34.5t-22 -32.5t-38 -13q-19 0 -35.5 11t-26.5 23t-22 22.5t-24 10.5q-19 0 -35.5 -17.5t-16.5 -34.5zM453 83l15 -9q-13 -81 -96 -81
q-34 0 -51 22.5t-20 53.5q-20 -23 -30.5 -33t-39.5 -27.5t-58 -17.5q-50 0 -86 28t-36 89q0 27 11.5 47t32 32.5t41.5 20.5t49 11.5t46.5 4.5t41 1.5t24.5 0.5q3 0 3 74q0 95 -87 95q-30 0 -48 -13t-22 -31q29 0 29 -44q0 -27 -18 -38.5t-35 -11.5q-19 0 -34 17.5t-15 38.5
q0 37 47 72q38 29 105 29q63 0 112 -39t49 -106q0 -33 -2 -92t-2 -85q0 -67 31 -66q18 0 27 13t16 44zM297 94v118q-35 -3 -64.5 -6.5t-50.5 -11t-33 -25.5t-12 -50q0 -43 21.5 -63t54.5 -20q52 0 84 58z" />
    <glyph glyph-name="adieresis" unicode="&#xe4;" horiz-adv-x="435" 
d="M135 524q0 15 9.5 25t21.5 10q13 0 23 -9.5t10 -24.5t-9.5 -25t-21.5 -10q-13 0 -23 10t-10 24zM288 524q0 15 9 25t22 10t22 -9.5t9 -24.5t-9 -25t-21 -10q-13 0 -22.5 10t-9.5 24zM453 83l15 -9q-13 -81 -96 -81q-34 0 -51 22.5t-20 53.5q-20 -23 -30.5 -33
t-39.5 -27.5t-58 -17.5q-50 0 -86 28t-36 89q0 27 11.5 47t32 32.5t41.5 20.5t49 11.5t46.5 4.5t41 1.5t24.5 0.5q3 0 3 74q0 95 -87 95q-30 0 -48 -13t-22 -31q29 0 29 -44q0 -27 -18 -38.5t-35 -11.5q-19 0 -34 17.5t-15 38.5q0 37 47 72q38 29 105 29q63 0 112 -39
t49 -106q0 -33 -2 -92t-2 -85q0 -67 31 -66q18 0 27 13t16 44zM297 94v118q-35 -3 -64.5 -6.5t-50.5 -11t-33 -25.5t-12 -50q0 -43 21.5 -63t54.5 -20q52 0 84 58z" />
    <glyph glyph-name="aring" unicode="&#xe5;" horiz-adv-x="435" 
d="M232 657q36 0 60 -23t24 -59t-24 -61t-60 -25t-60 25t-24 60.5t24 59t60 23.5zM181 573q0 -28 14.5 -42.5t36.5 -14.5q49 0 49 57q0 28 -13.5 43.5t-36.5 15.5t-36.5 -15.5t-13.5 -43.5zM453 83l15 -9q-13 -81 -96 -81q-34 0 -51 22.5t-20 53.5q-20 -23 -30.5 -33
t-39.5 -27.5t-58 -17.5q-50 0 -86 28t-36 89q0 27 11.5 47t32 32.5t41.5 20.5t49 11.5t46.5 4.5t41 1.5t24.5 0.5q3 0 3 74q0 95 -87 95q-30 0 -48 -13t-22 -31q29 0 29 -44q0 -27 -18 -38.5t-35 -11.5q-19 0 -34 17.5t-15 38.5q0 37 47 72q38 29 105 29q63 0 112 -39
t49 -106q0 -33 -2 -92t-2 -85q0 -67 31 -66q18 0 27 13t16 44zM297 94v118q-35 -3 -64.5 -6.5t-50.5 -11t-33 -25.5t-12 -50q0 -43 21.5 -63t54.5 -20q52 0 84 58z" />
    <glyph glyph-name="ae" unicode="&#xe6;" horiz-adv-x="696" 
d="M389 232l177 1q1 17 1 32q0 31 -5 50q-8 32 -32 52.5t-60 20.5q-73 0 -81 -156zM317 73q-15 -34 -61.5 -62t-92.5 -29q-49 0 -85.5 32.5t-36.5 93.5q0 24 10 42.5t25 31.5t38.5 22.5t42.5 14.5t46.5 8.5t41.5 4t36 1.5l21 1q1 0 1 66q0 42 -26.5 68.5t-73.5 26.5
q-30 0 -48 -13t-22 -31q29 0 29 -47q0 -18 -17.5 -32.5t-35.5 -14.5q-19 0 -34.5 17.5t-15.5 38.5q0 37 47 72q38 29 106 29q40 0 78 -16t60 -46q57 54 142 55q54 0 100.5 -29t59.5 -94q4 -20 4 -40q0 -11 -1 -26l-267 -1v-15v-9v-4q0 -47 10 -87t33.5 -67.5t56.5 -27.5
q58 0 92 34t48 71l27 -20q-15 -38 -57.5 -73.5t-113.5 -35.5q-106 0 -167 90zM306 84q0 19 -2 55t-2 65v16q-20 -2 -39 -4t-36.5 -5t-33 -7t-27.5 -12t-21 -17t-13.5 -23.5t-4.5 -32.5q0 -46 20.5 -69t55.5 -23q30 0 61 18.5t42 38.5z" />
    <glyph glyph-name="ccedilla" unicode="&#xe7;" horiz-adv-x="434" 
d="M239 -1l22 -1l-19 -51q54 0 72 -13t18 -39q0 -33 -40 -60.5t-99 -27.5l2 22q47 0 69.5 11.5t22.5 41.5q0 31 -85 31zM257 415q57 0 106.5 -33.5t49.5 -82.5q0 -39 -20 -59t-40 -20q-56 0 -56 54q0 22 13 37.5t29 15.5q18 0 34 -14q-20 84 -118 84q-48 0 -81 -59t-33 -148
q0 -67 35.5 -119.5t87.5 -52.5q32 0 55 10t37 30.5t18 29.5t12 30l28 -20q-15 -39 -55.5 -76t-103.5 -37q-94 0 -149 57t-55 168q0 54 21 95.5t54 64t66 34t65 11.5z" />
    <glyph glyph-name="egrave" unicode="&#xe8;" horiz-adv-x="421" 
d="M101 587l29 34l157 -144l-23 -15zM151 232l180 1q1 17 1 32q0 31 -5 50q-8 32 -32.5 52.5t-60.5 20.5q-37 0 -58 -42t-25 -114zM150 217v-22q0 -72 26.5 -130t76.5 -58q58 0 92 34t47 71l28 -20q-15 -38 -58 -73.5t-113 -35.5q-85 0 -141.5 53t-56.5 154q0 59 19.5 103.5
t52 68t65.5 34.5t68 11q54 0 100.5 -29t60.5 -94q4 -20 4 -40q0 -11 -1 -26z" />
    <glyph glyph-name="eacute" unicode="&#xe9;" horiz-adv-x="421" 
d="M151 232l180 1q1 17 1 32q0 31 -5 50q-8 32 -32.5 52.5t-60.5 20.5q-37 0 -58 -42t-25 -114zM150 217v-22q0 -72 26.5 -130t76.5 -58q58 0 92 34t47 71l28 -20q-15 -38 -58 -73.5t-113 -35.5q-85 0 -141.5 53t-56.5 154q0 59 19.5 103.5t52 68t65.5 34.5t68 11
q54 0 100.5 -29t60.5 -94q4 -20 4 -40q0 -11 -1 -26zM148 475l169 145l31 -48l-189 -115z" />
    <glyph glyph-name="ecircumflex" unicode="&#xea;" horiz-adv-x="421" 
d="M97 453l138 151l123 -148l-14 -12l-112 104l-121 -104zM151 232l180 1q1 17 1 32q0 31 -5 50q-8 32 -32.5 52.5t-60.5 20.5q-37 0 -58 -42t-25 -114zM150 217v-22q0 -72 26.5 -130t76.5 -58q58 0 92 34t47 71l28 -20q-15 -38 -58 -73.5t-113 -35.5q-85 0 -141.5 53
t-56.5 154q0 59 19.5 103.5t52 68t65.5 34.5t68 11q54 0 100.5 -29t60.5 -94q4 -20 4 -40q0 -11 -1 -26z" />
    <glyph glyph-name="edieresis" unicode="&#xeb;" horiz-adv-x="421" 
d="M134 524q0 15 9.5 25t21.5 10q13 0 23 -9.5t10 -24.5t-9.5 -25t-21.5 -10q-13 0 -23 10t-10 24zM287 524q0 15 9 25t22 10t22 -9.5t9 -24.5t-9 -25t-21 -10q-13 0 -22.5 10t-9.5 24zM151 232l180 1q1 17 1 32q0 31 -5 50q-8 32 -32.5 52.5t-60.5 20.5q-37 0 -58 -42
t-25 -114zM150 217v-22q0 -72 26.5 -130t76.5 -58q58 0 92 34t47 71l28 -20q-15 -38 -58 -73.5t-113 -35.5q-85 0 -141.5 53t-56.5 154q0 59 19.5 103.5t52 68t65.5 34.5t68 11q54 0 100.5 -29t60.5 -94q4 -20 4 -40q0 -11 -1 -26z" />
    <glyph glyph-name="igrave" unicode="&#xec;" horiz-adv-x="262" 
d="M27 587l29 34l157 -144l-23 -15zM185 422q-2 -173 -2 -385q4 -20 70 -21v-16q-41 3 -109 3q-65 0 -104 -3v16q60 2 63 21v336q-31 10 -63 10v16q90 5 145 23z" />
    <glyph glyph-name="iacute" unicode="&#xed;" horiz-adv-x="262" 
d="M185 422q-2 -173 -2 -385q4 -20 70 -21v-16q-41 3 -109 3q-65 0 -104 -3v16q60 2 63 21v336q-31 10 -63 10v16q90 5 145 23zM39 475l169 145l31 -48l-189 -115z" />
    <glyph glyph-name="icircumflex" unicode="&#xee;" horiz-adv-x="262" 
d="M0 453l138 151l123 -148l-14 -12l-112 104l-121 -104zM185 422q-2 -173 -2 -385q4 -20 70 -21v-16q-41 3 -109 3q-65 0 -104 -3v16q60 2 63 21v336q-31 10 -63 10v16q90 5 145 23z" />
    <glyph glyph-name="idieresis" unicode="&#xef;" horiz-adv-x="262" 
d="M20 524q0 15 9.5 25t21.5 10q13 0 23 -9.5t10 -24.5t-9.5 -25t-21.5 -10q-13 0 -23 10t-10 24zM173 524q0 15 9 25t22 10t22 -9.5t9 -24.5t-9 -25t-21 -10q-13 0 -22.5 10t-9.5 24zM185 422q-2 -173 -2 -385q4 -20 70 -21v-16q-41 3 -109 3q-65 0 -104 -3v16q60 2 63 21
v336q-31 10 -63 10v16q90 5 145 23z" />
    <glyph glyph-name="ntilde" unicode="&#xf1;" horiz-adv-x="524" 
d="M66 389q9 -1 19 -1q56 0 118 20l8 -99q63 96 135 97q34 0 60.5 -11t41.5 -27.5t24.5 -38.5t13 -41.5t3.5 -39.5v-205q0 -10 24 -18.5t42 -8.5v-16q-101 4 -125 4q-51 0 -90 -4v16q20 1 43 9t23 17q1 0 1 203q0 55 -19.5 89t-58.5 34q-32 0 -69 -31t-51 -76v-223
q0 -16 70 -22v-16q-41 3 -109 3q-65 0 -104 -3v16q20 0 41.5 8t21.5 18q2 61 2 161q0 95 -2 156q-19 10 -63 14v16zM188 454l-12 1q0 28 19.5 61t48.5 33q18 0 35.5 -15.5t36 -31t38.5 -15.5q31 0 40.5 16.5t9.5 44.5h16q0 -14 -2.5 -29t-9.5 -34.5t-22 -32.5t-38 -13
q-19 0 -35.5 11t-26.5 23t-22 22.5t-24 10.5q-19 0 -35.5 -17.5t-16.5 -34.5z" />
    <glyph glyph-name="ograve" unicode="&#xf2;" horiz-adv-x="476" 
d="M264 8q54 0 84 50t30 144q0 78 -32 136.5t-84 58.5q-35 0 -60 -19t-36.5 -51.5t-17 -64.5t-5.5 -67q0 -83 32 -135t89 -52zM253 417q89 0 151 -62t62 -142q0 -97 -52 -163.5t-153 -66.5q-210 0 -210 229q0 89 62 147t140 58zM162 587l29 34l157 -144l-23 -15z" />
    <glyph glyph-name="oacute" unicode="&#xf3;" horiz-adv-x="476" 
d="M264 8q54 0 84 50t30 144q0 78 -32 136.5t-84 58.5q-35 0 -60 -19t-36.5 -51.5t-17 -64.5t-5.5 -67q0 -83 32 -135t89 -52zM253 417q89 0 151 -62t62 -142q0 -97 -52 -163.5t-153 -66.5q-210 0 -210 229q0 89 62 147t140 58zM174 475l169 145l31 -48l-189 -115z" />
    <glyph glyph-name="ocircumflex" unicode="&#xf4;" horiz-adv-x="476" 
d="M264 8q54 0 84 50t30 144q0 78 -32 136.5t-84 58.5q-35 0 -60 -19t-36.5 -51.5t-17 -64.5t-5.5 -67q0 -83 32 -135t89 -52zM253 417q89 0 151 -62t62 -142q0 -97 -52 -163.5t-153 -66.5q-210 0 -210 229q0 89 62 147t140 58zM144 453l138 151l123 -148l-14 -12l-112 104
l-121 -104z" />
    <glyph glyph-name="otilde" unicode="&#xf5;" horiz-adv-x="476" 
d="M264 8q54 0 84 50t30 144q0 78 -32 136.5t-84 58.5q-35 0 -60 -19t-36.5 -51.5t-17 -64.5t-5.5 -67q0 -83 32 -135t89 -52zM253 417q89 0 151 -62t62 -142q0 -97 -52 -163.5t-153 -66.5q-210 0 -210 229q0 89 62 147t140 58zM188 452l-12 1q0 28 19.5 61t48.5 33
q18 0 35.5 -15.5t36 -31t38.5 -15.5q31 0 40.5 16.5t9.5 44.5h16q0 -14 -2.5 -29t-9.5 -34.5t-22 -32.5t-38 -13q-19 0 -35.5 11t-26.5 23t-22 22.5t-24 10.5q-19 0 -35.5 -17.5t-16.5 -34.5z" />
    <glyph glyph-name="odieresis" unicode="&#xf6;" horiz-adv-x="476" 
d="M264 8q54 0 84 50t30 144q0 78 -32 136.5t-84 58.5q-35 0 -60 -19t-36.5 -51.5t-17 -64.5t-5.5 -67q0 -83 32 -135t89 -52zM253 417q89 0 151 -62t62 -142q0 -97 -52 -163.5t-153 -66.5q-210 0 -210 229q0 89 62 147t140 58zM167 524q0 15 9.5 25t21.5 10q13 0 23 -9.5
t10 -24.5t-9.5 -25t-21.5 -10q-13 0 -23 10t-10 24zM320 524q0 15 9 25t22 10t22 -9.5t9 -24.5t-9 -25t-21 -10q-13 0 -22.5 10t-9.5 24z" />
    <glyph glyph-name="divide" unicode="&#xf7;" 
d="M244 395q47 0 47 -43q0 -50 -47 -50q-20 0 -31.5 15t-11.5 33q0 19 14 32t29 13zM46 250h429v-62h-429v62zM244 144q47 0 47 -43q0 -50 -47 -50q-20 0 -31.5 15t-11.5 33q0 19 14 32t29 13z" />
    <glyph glyph-name="ugrave" unicode="&#xf9;" horiz-adv-x="509" 
d="M61 395q88 0 145 11l-2 -274q2 -115 54 -115q29 0 56 20.5t44 44.5t27 45l10 20v220q-19 12 -59 12v16q94 0 147 11l-8 -199v-50l1 -129q12 -10 61 -12v-12q-76 -4 -137 -19l-7 109l-12 -16q-12 -16 -31 -36t-48 -36.5t-56 -16.5q-69 0 -97 36t-28 105l-1 241
q-16 8 -59 8v16zM204 587l29 34l157 -144l-23 -15z" />
    <glyph glyph-name="uacute" unicode="&#xfa;" horiz-adv-x="509" 
d="M61 395q88 0 145 11l-2 -274q2 -115 54 -115q29 0 56 20.5t44 44.5t27 45l10 20v220q-19 12 -59 12v16q94 0 147 11l-8 -199v-50l1 -129q12 -10 61 -12v-12q-76 -4 -137 -19l-7 109l-12 -16q-12 -16 -31 -36t-48 -36.5t-56 -16.5q-69 0 -97 36t-28 105l-1 241
q-16 8 -59 8v16zM217 475l169 145l31 -48l-189 -115z" />
    <glyph glyph-name="ucircumflex" unicode="&#xfb;" horiz-adv-x="509" 
d="M61 395q88 0 145 11l-2 -274q2 -115 54 -115q29 0 56 20.5t44 44.5t27 45l10 20v220q-19 12 -59 12v16q94 0 147 11l-8 -199v-50l1 -129q12 -10 61 -12v-12q-76 -4 -137 -19l-7 109l-12 -16q-12 -16 -31 -36t-48 -36.5t-56 -16.5q-69 0 -97 36t-28 105l-1 241
q-16 8 -59 8v16zM161 453l138 151l123 -148l-14 -12l-112 104l-121 -104z" />
    <glyph glyph-name="udieresis" unicode="&#xfc;" horiz-adv-x="509" 
d="M61 395q88 0 145 11l-2 -274q2 -115 54 -115q29 0 56 20.5t44 44.5t27 45l10 20v220q-19 12 -59 12v16q94 0 147 11l-8 -199v-50l1 -129q12 -10 61 -12v-12q-76 -4 -137 -19l-7 109l-12 -16q-12 -16 -31 -36t-48 -36.5t-56 -16.5q-69 0 -97 36t-28 105l-1 241
q-16 8 -59 8v16zM175 524q0 15 9.5 25t21.5 10q13 0 23 -9.5t10 -24.5t-9.5 -25t-21.5 -10q-13 0 -23 10t-10 24zM328 524q0 15 9 25t22 10t22 -9.5t9 -24.5t-9 -25t-21 -10q-13 0 -22.5 10t-9.5 24z" />
    <glyph glyph-name="yacute" unicode="&#xfd;" horiz-adv-x="548" 
d="M203 475l169 145l31 -48l-189 -115zM260 395l-2 -14q-24 0 -33.5 -5t-9.5 -21q0 -9 6 -27l101 -256l108 250q7 17 7 29q0 11 -5.5 18t-18 9.5t-21.5 3t-26 0.5l2 14q35 -4 90 -4t80 5l-2 -14q-39 0 -48 -8q-14 -13 -32 -60l-180 -428q-22 -53 -57 -84q-39 -33 -91 -32
q-34 0 -65.5 22.5t-31.5 54.5t16 47.5t38 15.5q25 0 45 -12.5t20 -36.5q0 -35 -40 -51q14 -11 42 -12q16 0 50 30q39 37 78 154l-153 353q-10 26 -35 35q-17 6 -57 10v14q43 -3 105 -3q75 0 120 3z" />
    <glyph glyph-name="ydieresis" unicode="&#xff;" horiz-adv-x="524" 
d="M260 395l-2 -14q-24 0 -33.5 -5t-9.5 -21q0 -9 6 -27l101 -256l108 250q7 17 7 29q0 11 -5.5 18t-18 9.5t-21.5 3t-26 0.5l2 14q35 -4 90 -4t80 5l-2 -14q-39 0 -48 -8q-14 -13 -32 -60l-180 -428q-22 -53 -57 -84q-39 -33 -91 -32q-34 0 -65.5 22.5t-31.5 54.5t16 47.5
t38 15.5q25 0 45 -12.5t20 -36.5q0 -35 -40 -51q14 -11 42 -12q16 0 50 30q39 37 78 154l-153 353q-10 26 -35 35q-17 6 -57 10v14q43 -3 105 -3q75 0 120 3zM221 524q0 15 9.5 25t21.5 10q13 0 23 -9.5t10 -24.5t-9.5 -25t-21.5 -10q-13 0 -23 10t-10 24zM374 524
q0 15 9 25t22 10t22 -9.5t9 -24.5t-9 -25t-21 -10q-13 0 -22.5 10t-9.5 24z" />
    <glyph glyph-name="Amacron" unicode="&#x100;" horiz-adv-x="734" 
d="M429 276h-201l-95 -223q-3 -5 -3 -10q0 -14 22 -22.5t44 -8.5l1 -16l-197 -1v20h2q19 0 41 8.5t35 23.5q17 20 141 303l124 282h33l219 -519q28 -67 61 -83q9 -4 19 -5.5t19 -1.5t13 -1l-2 -25q-67 3 -151 3q-76 0 -123 -3l1 19q0 -1 18 -1q36 0 50 17q7 8 7 22
q0 13 -6 29l-5 15zM240 300h181l-89 216z" />
    <glyph glyph-name="amacron" unicode="&#x101;" horiz-adv-x="435" 
d="M453 83l15 -9q-13 -81 -96 -81q-34 0 -51 22.5t-20 53.5q-20 -23 -30.5 -33t-39.5 -27.5t-58 -17.5q-50 0 -86 28t-36 89q0 27 11.5 47t32 32.5t41.5 20.5t49 11.5t46.5 4.5t41 1.5t24.5 0.5q3 0 3 74q0 95 -87 95q-30 0 -48 -13t-22 -31q29 0 29 -44q0 -27 -18 -38.5
t-35 -11.5q-19 0 -34 17.5t-15 38.5q0 37 47 72q38 29 105 29q63 0 112 -39t49 -106q0 -33 -2 -92t-2 -85q0 -67 31 -66q18 0 27 13t16 44zM297 94v118q-35 -3 -64.5 -6.5t-50.5 -11t-33 -25.5t-12 -50q0 -43 21.5 -63t54.5 -20q52 0 84 58z" />
    <glyph glyph-name="Abreve" unicode="&#x102;" horiz-adv-x="734" 
d="M429 276h-201l-95 -223q-3 -5 -3 -10q0 -14 22 -22.5t44 -8.5l1 -16l-197 -1v20h2q19 0 41 8.5t35 23.5q17 20 141 303l124 282h33l219 -519q28 -67 61 -83q9 -4 19 -5.5t19 -1.5t13 -1l-2 -25q-67 3 -151 3q-76 0 -123 -3l1 19q0 -1 18 -1q36 0 50 17q7 8 7 22
q0 13 -6 29l-5 15zM240 300h181l-89 216z" />
    <glyph glyph-name="abreve" unicode="&#x103;" horiz-adv-x="435" 
d="M453 83l15 -9q-13 -81 -96 -81q-34 0 -51 22.5t-20 53.5q-20 -23 -30.5 -33t-39.5 -27.5t-58 -17.5q-50 0 -86 28t-36 89q0 27 11.5 47t32 32.5t41.5 20.5t49 11.5t46.5 4.5t41 1.5t24.5 0.5q3 0 3 74q0 95 -87 95q-30 0 -48 -13t-22 -31q29 0 29 -44q0 -27 -18 -38.5
t-35 -11.5q-19 0 -34 17.5t-15 38.5q0 37 47 72q38 29 105 29q63 0 112 -39t49 -106q0 -33 -2 -92t-2 -85q0 -67 31 -66q18 0 27 13t16 44zM297 94v118q-35 -3 -64.5 -6.5t-50.5 -11t-33 -25.5t-12 -50q0 -43 21.5 -63t54.5 -20q52 0 84 58z" />
    <glyph glyph-name="Aogonek" unicode="&#x104;" horiz-adv-x="734" 
d="M429 276h-201l-95 -223q-3 -5 -3 -10q0 -14 22 -22.5t44 -8.5l1 -16l-197 -1v20h2q19 0 41 8.5t35 23.5q17 20 141 303l124 282h33l219 -519q28 -67 61 -83q9 -4 19 -5.5t19 -1.5t13 -1l-2 -25q-67 3 -151 3q-76 0 -123 -3l1 19q0 -1 18 -1q36 0 50 17q7 8 7 22
q0 13 -6 29l-5 15zM240 300h181l-89 216z" />
    <glyph glyph-name="aogonek" unicode="&#x105;" horiz-adv-x="458" 
d="M197 -134q0 38 29.5 67.5t59.5 42.5q62 28 85 28q6 0 9 -9q-11 -5 -24.5 -14t-34 -24t-33.5 -36t-13 -44q0 -43 17 -61.5t41 -18.5q25 0 49 24.5t25 46.5q1 -1 11 -5.5t13 -7.5q-11 -31 -41.5 -56.5t-74.5 -25.5q-54 0 -86 26t-32 67zM453 83l15 -9q-13 -81 -96 -81
q-34 0 -51 22.5t-20 53.5q-20 -23 -30.5 -33t-39.5 -27.5t-58 -17.5q-50 0 -86 28t-36 89q0 27 11.5 47t32 32.5t41.5 20.5t49 11.5t46.5 4.5t41 1.5t24.5 0.5q3 0 3 74q0 95 -87 95q-30 0 -48 -13t-22 -31q29 0 29 -44q0 -27 -18 -38.5t-35 -11.5q-19 0 -34 17.5t-15 38.5
q0 37 47 72q38 29 105 29q63 0 112 -39t49 -106q0 -33 -2 -92t-2 -85q0 -67 31 -66q18 0 27 13t16 44zM297 94v118q-35 -3 -64.5 -6.5t-50.5 -11t-33 -25.5t-12 -50q0 -43 21.5 -63t54.5 -20q52 0 84 58z" />
    <glyph glyph-name="Cacute" unicode="&#x106;" horiz-adv-x="696" 
d="M313 678l169 145l31 -48l-189 -115zM395 641q58 0 110.5 -18t68.5 -37q12 8 18.5 17t8 16t4.5 29h32l-3 -207h-20q-13 81 -69.5 126.5t-157.5 45.5q-98 0 -148 -81t-52 -219q0 -305 214 -305q49 0 86 13.5t63.5 40.5t42 54t33.5 68l23 -18q-78 -188 -250 -189
q-152 0 -248 86.5t-96 242.5q0 75 23 135t59 96t82.5 61t90 34t85.5 9z" />
    <glyph glyph-name="cacute" unicode="&#x107;" horiz-adv-x="454" 
d="M147 475l169 145l31 -48l-189 -115zM257 415q57 0 106.5 -33.5t49.5 -82.5q0 -39 -20 -59t-40 -20q-56 0 -56 54q0 22 13 37.5t29 15.5q18 0 34 -14q-20 84 -118 84q-48 0 -81 -59t-33 -148q0 -67 35.5 -119.5t87.5 -52.5q32 0 55 10t37 30.5t18 29.5t12 30l28 -20
q-15 -39 -55.5 -76t-103.5 -37q-94 0 -149 57t-55 168q0 54 21 95.5t54 64t66 34t65 11.5z" />
    <glyph glyph-name="Ccircumflex" unicode="&#x108;" horiz-adv-x="696" 
d="M273 662l138 151l123 -148l-14 -12l-112 104l-121 -104zM395 641q58 0 110.5 -18t68.5 -37q12 8 18.5 17t8 16t4.5 29h32l-3 -207h-20q-13 81 -69.5 126.5t-157.5 45.5q-98 0 -148 -81t-52 -219q0 -305 214 -305q49 0 86 13.5t63.5 40.5t42 54t33.5 68l23 -18
q-78 -188 -250 -189q-152 0 -248 86.5t-96 242.5q0 75 23 135t59 96t82.5 61t90 34t85.5 9z" />
    <glyph glyph-name="ccircumflex" unicode="&#x109;" horiz-adv-x="454" 
d="M114 453l138 151l123 -148l-14 -12l-112 104l-121 -104zM257 415q57 0 106.5 -33.5t49.5 -82.5q0 -39 -20 -59t-40 -20q-56 0 -56 54q0 22 13 37.5t29 15.5q18 0 34 -14q-20 84 -118 84q-48 0 -81 -59t-33 -148q0 -67 35.5 -119.5t87.5 -52.5q32 0 55 10t37 30.5t18 29.5
t12 30l28 -20q-15 -39 -55.5 -76t-103.5 -37q-94 0 -149 57t-55 168q0 54 21 95.5t54 64t66 34t65 11.5z" />
    <glyph glyph-name="Cdotaccent" unicode="&#x10a;" horiz-adv-x="696" 
d="M395 641q58 0 110.5 -18t68.5 -37q12 8 18.5 17t8 16t4.5 29h32l-3 -207h-20q-13 81 -69.5 126.5t-157.5 45.5q-98 0 -148 -81t-52 -219q0 -305 214 -305q49 0 86 13.5t63.5 40.5t42 54t33.5 68l23 -18q-78 -188 -250 -189q-152 0 -248 86.5t-96 242.5q0 75 23 135t59 96
t82.5 61t90 34t85.5 9z" />
    <glyph glyph-name="cdotaccent" unicode="&#x10b;" horiz-adv-x="454" 
d="M257 415q57 0 106.5 -33.5t49.5 -82.5q0 -39 -20 -59t-40 -20q-56 0 -56 54q0 22 13 37.5t29 15.5q18 0 34 -14q-20 84 -118 84q-48 0 -81 -59t-33 -148q0 -67 35.5 -119.5t87.5 -52.5q32 0 55 10t37 30.5t18 29.5t12 30l28 -20q-15 -39 -55.5 -76t-103.5 -37
q-94 0 -149 57t-55 168q0 54 21 95.5t54 64t66 34t65 11.5z" />
    <glyph glyph-name="Ccaron" unicode="&#x10c;" horiz-adv-x="696" 
d="M523 810l-133 -146l-126 148l13 11l117 -106l116 106zM395 641q58 0 110.5 -18t68.5 -37q12 8 18.5 17t8 16t4.5 29h32l-3 -207h-20q-13 81 -69.5 126.5t-157.5 45.5q-98 0 -148 -81t-52 -219q0 -305 214 -305q49 0 86 13.5t63.5 40.5t42 54t33.5 68l23 -18
q-78 -188 -250 -189q-152 0 -248 86.5t-96 242.5q0 75 23 135t59 96t82.5 61t90 34t85.5 9z" />
    <glyph glyph-name="ccaron" unicode="&#x10d;" horiz-adv-x="454" 
d="M369 596l-133 -146l-126 148l13 11l117 -106l116 106zM257 415q57 0 106.5 -33.5t49.5 -82.5q0 -39 -20 -59t-40 -20q-56 0 -56 54q0 22 13 37.5t29 15.5q18 0 34 -14q-20 84 -118 84q-48 0 -81 -59t-33 -148q0 -67 35.5 -119.5t87.5 -52.5q32 0 55 10t37 30.5t18 29.5
t12 30l28 -20q-15 -39 -55.5 -76t-103.5 -37q-94 0 -149 57t-55 168q0 54 21 95.5t54 64t66 34t65 11.5z" />
    <glyph glyph-name="Dcaron" unicode="&#x10e;" horiz-adv-x="671" 
d="M445 805l-133 -146l-126 148l13 11l117 -106l116 106zM635 296q0 -54 -19.5 -105.5t-57.5 -96t-102 -71t-146 -26.5q-7 0 -40.5 0.5t-92.5 1t-128 0.5v16q81 7 88 46v504q-1 13 -7 22.5t-20.5 14t-21 6t-26.5 3.5v18q59 0 154 1t120 1q49 0 98 -17.5t96 -54t76 -105
t29 -158.5zM526 290v6q0 79 -9.5 132t-34.5 94.5t-70.5 61t-114.5 19.5q-30 0 -63 -3v-90v-188v-180v-74q0 -19 15.5 -34.5t39.5 -15.5q73 0 119.5 15t72 50.5t35 83t10.5 123.5z" />
    <glyph glyph-name="dcaron" unicode="&#x10f;" horiz-adv-x="606" 
d="M525 511q-30 0 -50 23t-20 53q0 34 24 54.5t51 20.5t52.5 -24t25.5 -61q0 -59 -38 -103t-78 -49l-8 15q23 9 52.5 35.5t31.5 50.5q-25 -15 -43 -15zM450 656q-5 -169 -6 -391q0 -152 3 -232q0 -7 8 -11.5t16 -6t18.5 -2.5t12.5 -1v-12q-104 -4 -128 -10l-8 73
q-22 -28 -57 -48.5t-70 -20.5q-79 0 -128.5 55.5t-49.5 145.5q0 95 56 156t143 61q27 0 49 -10t32.5 -21t16.5 -21l6 -10v249q-4 20 -72 21l1 17q102 0 157 19zM357 131l7 92l-5 90l-5 13q-6 11 -16 26t-31 26.5t-46 11.5q-98 0 -98 -186q0 -177 101 -177q36 0 64.5 35.5
t28.5 68.5z" />
    <glyph glyph-name="Dcroat" unicode="&#x110;" horiz-adv-x="671" 
d="M635 296q0 -54 -19.5 -105.5t-57.5 -96t-102 -71t-146 -26.5q-7 0 -40.5 0.5t-92.5 1t-128 0.5v16q81 7 88 46v504q-1 13 -7 22.5t-20.5 14t-21 6t-26.5 3.5v18q59 0 154 1t120 1q49 0 98 -17.5t96 -54t76 -105t29 -158.5zM526 290v6q0 79 -9.5 132t-34.5 94.5t-70.5 61
t-114.5 19.5q-30 0 -63 -3v-90v-188v-180v-74q0 -19 15.5 -34.5t39.5 -15.5q73 0 119.5 15t72 50.5t35 83t10.5 123.5z" />
    <glyph glyph-name="dcroat" unicode="&#x111;" horiz-adv-x="478" 
d="M450 656q-5 -169 -6 -391q0 -152 3 -232q0 -7 8 -11.5t16 -6t18.5 -2.5t12.5 -1v-12q-104 -4 -128 -10l-8 73q-22 -28 -57 -48.5t-70 -20.5q-79 0 -128.5 55.5t-49.5 145.5q0 95 56 156t143 61q27 0 49 -10t32.5 -21t16.5 -21l6 -10v249q-4 20 -72 21l1 17q102 0 157 19z
M357 131l7 92l-5 90l-5 13q-6 11 -16 26t-31 26.5t-46 11.5q-98 0 -98 -186q0 -177 101 -177q36 0 64.5 35.5t28.5 68.5z" />
    <glyph glyph-name="Emacron" unicode="&#x112;" horiz-adv-x="583" 
d="M513 0h-464v16q0 -1 28 -1q49 0 54 24q9 54 9 386q0 146 -4 160q-2 11 -38 19l-36 7v18q106 -3 236.5 -3t212.5 3l3 -145h-19q-5 25 -15 48.5t-34 47t-55 23.5h-157v-272h148q46 0 50 79h24v-180h-20q-5 78 -57 78h-145v-239q0 -48 35 -49h151q26 1 50.5 44.5t29.5 87.5
h22z" />
    <glyph glyph-name="emacron" unicode="&#x113;" horiz-adv-x="442" 
d="M151 232l180 1q1 17 1 32q0 31 -5 50q-8 32 -32.5 52.5t-60.5 20.5q-37 0 -58 -42t-25 -114zM150 217v-22q0 -72 26.5 -130t76.5 -58q58 0 92 34t47 71l28 -20q-15 -38 -58 -73.5t-113 -35.5q-85 0 -141.5 53t-56.5 154q0 59 19.5 103.5t52 68t65.5 34.5t68 11
q54 0 100.5 -29t60.5 -94q4 -20 4 -40q0 -11 -1 -26z" />
    <glyph glyph-name="Ebreve" unicode="&#x114;" horiz-adv-x="583" 
d="M513 0h-464v16q0 -1 28 -1q49 0 54 24q9 54 9 386q0 146 -4 160q-2 11 -38 19l-36 7v18q106 -3 236.5 -3t212.5 3l3 -145h-19q-5 25 -15 48.5t-34 47t-55 23.5h-157v-272h148q46 0 50 79h24v-180h-20q-5 78 -57 78h-145v-239q0 -48 35 -49h151q26 1 50.5 44.5t29.5 87.5
h22z" />
    <glyph glyph-name="ebreve" unicode="&#x115;" horiz-adv-x="442" 
d="M151 232l180 1q1 17 1 32q0 31 -5 50q-8 32 -32.5 52.5t-60.5 20.5q-37 0 -58 -42t-25 -114zM150 217v-22q0 -72 26.5 -130t76.5 -58q58 0 92 34t47 71l28 -20q-15 -38 -58 -73.5t-113 -35.5q-85 0 -141.5 53t-56.5 154q0 59 19.5 103.5t52 68t65.5 34.5t68 11
q54 0 100.5 -29t60.5 -94q4 -20 4 -40q0 -11 -1 -26z" />
    <glyph glyph-name="Edotaccent" unicode="&#x116;" horiz-adv-x="583" 
d="M513 0h-464v16q0 -1 28 -1q49 0 54 24q9 54 9 386q0 146 -4 160q-2 11 -38 19l-36 7v18q106 -3 236.5 -3t212.5 3l3 -145h-19q-5 25 -15 48.5t-34 47t-55 23.5h-157v-272h148q46 0 50 79h24v-180h-20q-5 78 -57 78h-145v-239q0 -48 35 -49h151q26 1 50.5 44.5t29.5 87.5
h22z" />
    <glyph glyph-name="edotaccent" unicode="&#x117;" horiz-adv-x="442" 
d="M151 232l180 1q1 17 1 32q0 31 -5 50q-8 32 -32.5 52.5t-60.5 20.5q-37 0 -58 -42t-25 -114zM150 217v-22q0 -72 26.5 -130t76.5 -58q58 0 92 34t47 71l28 -20q-15 -38 -58 -73.5t-113 -35.5q-85 0 -141.5 53t-56.5 154q0 59 19.5 103.5t52 68t65.5 34.5t68 11
q54 0 100.5 -29t60.5 -94q4 -20 4 -40q0 -11 -1 -26z" />
    <glyph glyph-name="Eogonek" unicode="&#x118;" horiz-adv-x="583" 
d="M513 0h-464v16q0 -1 28 -1q49 0 54 24q9 54 9 386q0 146 -4 160q-2 11 -38 19l-36 7v18q106 -3 236.5 -3t212.5 3l3 -145h-19q-5 25 -15 48.5t-34 47t-55 23.5h-157v-272h148q46 0 50 79h24v-180h-20q-5 78 -57 78h-145v-239q0 -48 35 -49h151q26 1 50.5 44.5t29.5 87.5
h22z" />
    <glyph glyph-name="eogonek" unicode="&#x119;" horiz-adv-x="442" 
d="M115 -134q0 38 29.5 67.5t59.5 42.5q44 19 79 20q8 0 15 -1q-6 -4 -18 -11.5t-26.5 -19.5t-28 -25t-22.5 -30t-9 -32q0 -43 16.5 -61.5t40.5 -18.5q25 0 49 24.5t25 46.5q1 -1 11 -5.5t13 -7.5q-11 -31 -41 -56.5t-75 -25.5q-54 0 -86 26t-32 67zM151 232l180 1
q1 17 1 32q0 31 -5 50q-8 32 -32.5 52.5t-60.5 20.5q-37 0 -58 -42t-25 -114zM150 217v-22q0 -72 26.5 -130t76.5 -58q58 0 92 34t47 71l28 -20q-15 -38 -58 -73.5t-113 -35.5q-85 0 -141.5 53t-56.5 154q0 59 19.5 103.5t52 68t65.5 34.5t68 11q54 0 100.5 -29t60.5 -94
q4 -20 4 -40q0 -11 -1 -26z" />
    <glyph glyph-name="Ecaron" unicode="&#x11a;" horiz-adv-x="583" 
d="M513 0h-464v16q0 -1 28 -1q49 0 54 24q9 54 9 386q0 146 -4 160q-2 11 -38 19l-36 7v18q106 -3 236.5 -3t212.5 3l3 -145h-19q-5 25 -15 48.5t-34 47t-55 23.5h-157v-272h148q46 0 50 79h24v-180h-20q-5 78 -57 78h-145v-239q0 -48 35 -49h151q26 1 50.5 44.5t29.5 87.5
h22z" />
    <glyph glyph-name="ecaron" unicode="&#x11b;" horiz-adv-x="442" 
d="M357 596l-133 -146l-126 148l13 11l117 -106l116 106zM151 232l180 1q1 17 1 32q0 31 -5 50q-8 32 -32.5 52.5t-60.5 20.5q-37 0 -58 -42t-25 -114zM150 217v-22q0 -72 26.5 -130t76.5 -58q58 0 92 34t47 71l28 -20q-15 -38 -58 -73.5t-113 -35.5q-85 0 -141.5 53
t-56.5 154q0 59 19.5 103.5t52 68t65.5 34.5t68 11q54 0 100.5 -29t60.5 -94q4 -20 4 -40q0 -11 -1 -26z" />
    <glyph glyph-name="Gcircumflex" unicode="&#x11c;" horiz-adv-x="747" 
d="M402 642q37 0 75.5 -15t59.5 -30t38 -26q14 6 25 26t13 41h26l-3 -207h-31q-29 182 -206 182q-104 0 -160.5 -73t-56.5 -245q0 -76 20.5 -138.5t68 -104.5t115.5 -42q49 0 95.5 21.5t71.5 56.5q3 39 3 81q0 37 -3 58q-39 23 -94 26v22h267v-22q-55 -6 -71 -26
q-4 -8 -4 -88q0 -66 2 -142h-17l-5 15q-4 16 -21 32.5t-41 16.5q-22 -33 -75.5 -58.5t-108.5 -25.5q-147 0 -240.5 87t-93.5 232q0 77 22 138.5t57.5 99t82.5 63t93.5 35.5t95.5 10z" />
    <glyph glyph-name="gcircumflex" unicode="&#x11d;" horiz-adv-x="477" 
d="M101 453l138 151l123 -148l-14 -12l-112 104l-121 -104zM442 338q-12 0 -27.5 19t-19.5 19q-25 0 -38 -16l12 -9q10 -9 20 -33t10 -55q0 -70 -51.5 -110.5t-107.5 -40.5q-27 0 -55 9l-27 8l-11 -4q-10 -5 -20 -15.5t-11 -20.5q1 -33 65 -33q88 0 124 -7q63 -11 96 -36
t33 -85q0 -75 -65.5 -118.5t-163.5 -43.5q-83 0 -123.5 31t-40.5 75q0 36 29.5 60t86.5 45h-5h-5q-29 0 -55 21t-26 59q0 20 13 38.5t25.5 26t32.5 17.5q-4 3 -14.5 15.5t-22 26t-19.5 35.5t-8 44q0 56 45 100t113 44q33 0 61.5 -7t40.5 -14l12 -7q46 41 80 41q47 0 47 -38
q0 -41 -30 -41zM325 261q0 59 -28 92.5t-61 33.5q-30 0 -57 -36t-27 -88q0 -56 23.5 -95t63.5 -39q37 0 61.5 32t24.5 100zM368 -118q0 57 -38.5 75t-144.5 18l-17 -8q-18 -7 -36.5 -31t-18.5 -57q0 -36 27 -66t82 -30q70 0 108 29.5t38 69.5z" />
    <glyph glyph-name="Gbreve" unicode="&#x11e;" horiz-adv-x="747" 
d="M402 642q37 0 75.5 -15t59.5 -30t38 -26q14 6 25 26t13 41h26l-3 -207h-31q-29 182 -206 182q-104 0 -160.5 -73t-56.5 -245q0 -76 20.5 -138.5t68 -104.5t115.5 -42q49 0 95.5 21.5t71.5 56.5q3 39 3 81q0 37 -3 58q-39 23 -94 26v22h267v-22q-55 -6 -71 -26
q-4 -8 -4 -88q0 -66 2 -142h-17l-5 15q-4 16 -21 32.5t-41 16.5q-22 -33 -75.5 -58.5t-108.5 -25.5q-147 0 -240.5 87t-93.5 232q0 77 22 138.5t57.5 99t82.5 63t93.5 35.5t95.5 10z" />
    <glyph glyph-name="gbreve" unicode="&#x11f;" horiz-adv-x="477" 
d="M442 338q-12 0 -27.5 19t-19.5 19q-25 0 -38 -16l12 -9q10 -9 20 -33t10 -55q0 -70 -51.5 -110.5t-107.5 -40.5q-27 0 -55 9l-27 8l-11 -4q-10 -5 -20 -15.5t-11 -20.5q1 -33 65 -33q88 0 124 -7q63 -11 96 -36t33 -85q0 -75 -65.5 -118.5t-163.5 -43.5q-83 0 -123.5 31
t-40.5 75q0 36 29.5 60t86.5 45h-5h-5q-29 0 -55 21t-26 59q0 20 13 38.5t25.5 26t32.5 17.5q-4 3 -14.5 15.5t-22 26t-19.5 35.5t-8 44q0 56 45 100t113 44q33 0 61.5 -7t40.5 -14l12 -7q46 41 80 41q47 0 47 -38q0 -41 -30 -41zM325 261q0 59 -28 92.5t-61 33.5
q-30 0 -57 -36t-27 -88q0 -56 23.5 -95t63.5 -39q37 0 61.5 32t24.5 100zM368 -118q0 57 -38.5 75t-144.5 18l-17 -8q-18 -7 -36.5 -31t-18.5 -57q0 -36 27 -66t82 -30q70 0 108 29.5t38 69.5z" />
    <glyph glyph-name="Gdotaccent" unicode="&#x120;" horiz-adv-x="747" 
d="M402 642q37 0 75.5 -15t59.5 -30t38 -26q14 6 25 26t13 41h26l-3 -207h-31q-29 182 -206 182q-104 0 -160.5 -73t-56.5 -245q0 -76 20.5 -138.5t68 -104.5t115.5 -42q49 0 95.5 21.5t71.5 56.5q3 39 3 81q0 37 -3 58q-39 23 -94 26v22h267v-22q-55 -6 -71 -26
q-4 -8 -4 -88q0 -66 2 -142h-17l-5 15q-4 16 -21 32.5t-41 16.5q-22 -33 -75.5 -58.5t-108.5 -25.5q-147 0 -240.5 87t-93.5 232q0 77 22 138.5t57.5 99t82.5 63t93.5 35.5t95.5 10z" />
    <glyph glyph-name="gdotaccent" unicode="&#x121;" horiz-adv-x="477" 
d="M442 338q-12 0 -27.5 19t-19.5 19q-25 0 -38 -16l12 -9q10 -9 20 -33t10 -55q0 -70 -51.5 -110.5t-107.5 -40.5q-27 0 -55 9l-27 8l-11 -4q-10 -5 -20 -15.5t-11 -20.5q1 -33 65 -33q88 0 124 -7q63 -11 96 -36t33 -85q0 -75 -65.5 -118.5t-163.5 -43.5q-83 0 -123.5 31
t-40.5 75q0 36 29.5 60t86.5 45h-5h-5q-29 0 -55 21t-26 59q0 20 13 38.5t25.5 26t32.5 17.5q-4 3 -14.5 15.5t-22 26t-19.5 35.5t-8 44q0 56 45 100t113 44q33 0 61.5 -7t40.5 -14l12 -7q46 41 80 41q47 0 47 -38q0 -41 -30 -41zM325 261q0 59 -28 92.5t-61 33.5
q-30 0 -57 -36t-27 -88q0 -56 23.5 -95t63.5 -39q37 0 61.5 32t24.5 100zM368 -118q0 57 -38.5 75t-144.5 18l-17 -8q-18 -7 -36.5 -31t-18.5 -57q0 -36 27 -66t82 -30q70 0 108 29.5t38 69.5z" />
    <glyph glyph-name="Gcommaaccent" unicode="&#x122;" horiz-adv-x="747" 
d="M402 642q37 0 75.5 -15t59.5 -30t38 -26q14 6 25 26t13 41h26l-3 -207h-31q-29 182 -206 182q-104 0 -160.5 -73t-56.5 -245q0 -76 20.5 -138.5t68 -104.5t115.5 -42q49 0 95.5 21.5t71.5 56.5q3 39 3 81q0 37 -3 58q-39 23 -94 26v22h267v-22q-55 -6 -71 -26
q-4 -8 -4 -88q0 -66 2 -142h-17l-5 15q-4 16 -21 32.5t-41 16.5q-22 -33 -75.5 -58.5t-108.5 -25.5q-147 0 -240.5 87t-93.5 232q0 77 22 138.5t57.5 99t82.5 63t93.5 35.5t95.5 10z" />
    <glyph glyph-name="gcommaaccent" unicode="&#x123;" horiz-adv-x="477" 
d="M442 338q-12 0 -27.5 19t-19.5 19q-25 0 -38 -16l12 -9q10 -9 20 -33t10 -55q0 -70 -51.5 -110.5t-107.5 -40.5q-27 0 -55 9l-27 8l-11 -4q-10 -5 -20 -15.5t-11 -20.5q1 -33 65 -33q88 0 124 -7q63 -11 96 -36t33 -85q0 -75 -65.5 -118.5t-163.5 -43.5q-83 0 -123.5 31
t-40.5 75q0 36 29.5 60t86.5 45h-5h-5q-29 0 -55 21t-26 59q0 20 13 38.5t25.5 26t32.5 17.5q-4 3 -14.5 15.5t-22 26t-19.5 35.5t-8 44q0 56 45 100t113 44q33 0 61.5 -7t40.5 -14l12 -7q46 41 80 41q47 0 47 -38q0 -41 -30 -41zM325 261q0 59 -28 92.5t-61 33.5
q-30 0 -57 -36t-27 -88q0 -56 23.5 -95t63.5 -39q37 0 61.5 32t24.5 100zM368 -118q0 57 -38.5 75t-144.5 18l-17 -8q-18 -7 -36.5 -31t-18.5 -57q0 -36 27 -66t82 -30q70 0 108 29.5t38 69.5z" />
    <glyph glyph-name="Hcircumflex" unicode="&#x124;" horiz-adv-x="755" 
d="M512 584q0 22 -66 24l-2 15q34 -2 84 -2q101 0 157 5v-15l-36 -7q-37 -8 -38 -19q-1 -9 -1 -98q0 -421 6 -452q4 -23 78 -23h4l2 -13q-48 4 -126 4q-89 0 -138 -5l1 17q76 0 76 29v264h-279v-264q0 -29 76 -29l1 -16q-32 1 -77 1q-99 0 -175 -4v16h4q63 0 68 23
q2 12 4 183t2 284q0 77 -1 83q-3 11 -34 19l-29 7v15q47 -4 120 -4q76 0 119 4v-20q-77 -5 -78 -23v-252h279z" />
    <glyph glyph-name="hcircumflex" unicode="&#x125;" horiz-adv-x="563" 
d="M61 635h1q81 0 145 22l-2 -350q15 25 23.5 35t25.5 28.5t38.5 27t49.5 8.5q36 0 64 -17t42 -42t20.5 -48.5t6.5 -40.5v-102.5v-94.5v-24q0 -9 14 -14t22.5 -5.5t31.5 -1.5v-16q-42 4 -108 4q-69 0 -107 -4v16q6 1 14.5 1t17.5 1t16.5 3.5t12 6t4.5 8.5v1v238q0 92 -68 93
q-41 0 -64.5 -19.5t-55.5 -66.5v-245q0 -10 12.5 -15t28 -5t28.5 -1v-16q-45 4 -111 4q-63 0 -102 -4v16q18 0 41 6t23 15q0 37 1.5 155t1.5 186q0 143 -3 220q-7 7 -17 11t-17.5 5t-29.5 4v17z" />
    <glyph glyph-name="Hbar" unicode="&#x126;" horiz-adv-x="755" 
d="M512 584q0 22 -66 24l-2 15q34 -2 84 -2q101 0 157 5v-15l-36 -7q-37 -8 -38 -19q-1 -9 -1 -98q0 -421 6 -452q4 -23 78 -23h4l2 -13q-48 4 -126 4q-89 0 -138 -5l1 17q76 0 76 29v264h-279v-264q0 -29 76 -29l1 -16q-32 1 -77 1q-99 0 -175 -4v16h4q63 0 68 23
q2 12 4 183t2 284q0 77 -1 83q-3 11 -34 19l-29 7v15q47 -4 120 -4q76 0 119 4v-20q-77 -5 -78 -23v-252h279z" />
    <glyph glyph-name="hbar" unicode="&#x127;" horiz-adv-x="563" 
d="M61 635h1q81 0 145 22l-2 -350q15 25 23.5 35t25.5 28.5t38.5 27t49.5 8.5q36 0 64 -17t42 -42t20.5 -48.5t6.5 -40.5v-102.5v-94.5v-24q0 -9 14 -14t22.5 -5.5t31.5 -1.5v-16q-42 4 -108 4q-69 0 -107 -4v16q6 1 14.5 1t17.5 1t16.5 3.5t12 6t4.5 8.5v1v238q0 92 -68 93
q-41 0 -64.5 -19.5t-55.5 -66.5v-245q0 -10 12.5 -15t28 -5t28.5 -1v-16q-45 4 -111 4q-63 0 -102 -4v16q18 0 41 6t23 15q0 37 1.5 155t1.5 186q0 143 -3 220q-7 7 -17 11t-17.5 5t-29.5 4v17z" />
    <glyph glyph-name="Itilde" unicode="&#x128;" horiz-adv-x="376" 
d="M88 671l-12 1q0 28 19.5 61t48.5 33q18 0 35.5 -15.5t36 -31t38.5 -15.5q31 0 40.5 16.5t9.5 44.5h16q0 -14 -2.5 -29t-9.5 -34.5t-22 -32.5t-38 -13q-19 0 -35.5 11t-26.5 23t-22 22.5t-24 10.5q-19 0 -35.5 -17.5t-16.5 -34.5zM245 583q0 -1 -0.5 -56t-1 -137.5
t-0.5 -150.5q0 -136 2 -194q1 -29 76 -29l1 -16q-32 1 -79 1q-108 0 -184 -4v16h4q74 0 78 23q5 30 5 549q0 11 -36 19l-37 7v15q47 -4 121 -4q77 0 120 4v-20q-69 -5 -69 -23z" />
    <glyph glyph-name="itilde" unicode="&#x129;" horiz-adv-x="262" 
d="M18 473l-12 1q0 28 19.5 61t48.5 33q18 0 35.5 -15.5t36 -31t38.5 -15.5q31 0 40.5 16.5t9.5 44.5h16q0 -14 -2.5 -29t-9.5 -34.5t-22 -32.5t-38 -13q-19 0 -35.5 11t-26.5 23t-22 22.5t-24 10.5q-19 0 -35.5 -17.5t-16.5 -34.5zM185 422q-2 -173 -2 -385q4 -20 70 -21
v-16q-41 3 -109 3q-65 0 -104 -3v16q60 2 63 21v336q-31 10 -63 10v16q90 5 145 23z" />
    <glyph glyph-name="Imacron" unicode="&#x12a;" horiz-adv-x="376" 
d="M245 583q0 -1 -0.5 -56t-1 -137.5t-0.5 -150.5q0 -136 2 -194q1 -29 76 -29l1 -16q-32 1 -79 1q-108 0 -184 -4v16h4q74 0 78 23q5 30 5 549q0 11 -36 19l-37 7v15q47 -4 121 -4q77 0 120 4v-20q-69 -5 -69 -23z" />
    <glyph glyph-name="imacron" unicode="&#x12b;" horiz-adv-x="262" 
d="M185 422q-2 -173 -2 -385q4 -20 70 -21v-16q-41 3 -109 3q-65 0 -104 -3v16q60 2 63 21v336q-31 10 -63 10v16q90 5 145 23z" />
    <glyph glyph-name="Ibreve" unicode="&#x12c;" horiz-adv-x="376" 
d="M245 583q0 -1 -0.5 -56t-1 -137.5t-0.5 -150.5q0 -136 2 -194q1 -29 76 -29l1 -16q-32 1 -79 1q-108 0 -184 -4v16h4q74 0 78 23q5 30 5 549q0 11 -36 19l-37 7v15q47 -4 121 -4q77 0 120 4v-20q-69 -5 -69 -23z" />
    <glyph glyph-name="ibreve" unicode="&#x12d;" horiz-adv-x="262" 
d="M185 422q-2 -173 -2 -385q4 -20 70 -21v-16q-41 3 -109 3q-65 0 -104 -3v16q60 2 63 21v336q-31 10 -63 10v16q90 5 145 23z" />
    <glyph glyph-name="Iogonek" unicode="&#x12e;" horiz-adv-x="376" 
d="M245 583q0 -1 -0.5 -56t-1 -137.5t-0.5 -150.5q0 -136 2 -194q1 -29 76 -29l1 -16q-32 1 -79 1q-108 0 -184 -4v16h4q74 0 78 23q5 30 5 549q0 11 -36 19l-37 7v15q47 -4 121 -4q77 0 120 4v-20q-69 -5 -69 -23z" />
    <glyph glyph-name="iogonek" unicode="&#x12f;" horiz-adv-x="262" 
d="M36 -134q0 38 29.5 69.5t57.5 42.5q51 19 58 22q29 7 50 7q13 0 15 -3l-15 -6t-30.5 -14t-27.5 -16q-58 -38 -58 -91q0 -43 16.5 -61.5t40.5 -18.5q25 0 49 24.5t25 46.5q1 -1 11 -5.5t13 -7.5q-11 -31 -41 -56.5t-74 -25.5q-54 0 -86.5 26t-32.5 67zM216 422
q-2 -173 -2 -385q4 -20 70 -21v-16q-41 3 -109 3q-65 0 -104 -3v16q60 2 63 21v336q-31 10 -63 10v16q90 5 145 23zM170 641q23 0 42 -16.5t19 -38.5q0 -27 -17.5 -44.5t-43.5 -17.5q-19 0 -37 16t-18 40q0 25 17.5 43t37.5 18z" />
    <glyph glyph-name="Idotaccent" unicode="&#x130;" horiz-adv-x="376" 
d="M245 583q0 -1 -0.5 -56t-1 -137.5t-0.5 -150.5q0 -136 2 -194q1 -29 76 -29l1 -16q-32 1 -79 1q-108 0 -184 -4v16h4q74 0 78 23q5 30 5 549q0 11 -36 19l-37 7v15q47 -4 121 -4q77 0 120 4v-20q-69 -5 -69 -23z" />
    <glyph glyph-name="dotlessi" unicode="&#x131;" horiz-adv-x="262" 
d="M185 422q-2 -173 -2 -385q4 -20 70 -21v-16q-41 3 -109 3q-65 0 -104 -3v16q60 2 63 21v336q-31 10 -63 10v16q90 5 145 23z" />
    <glyph glyph-name="IJ" unicode="&#x132;" horiz-adv-x="593" 
d="M498 583q-4 -60 -4 -318q0 -32 0.5 -85t0.5 -76q0 -93 -10 -149.5t-39 -97.5q-51 -71 -147 -71q-65 0 -97 24.5t-32 58.5q0 27 18.5 46.5t46.5 19.5q31 0 49 -17.5t18 -43.5q0 -40 -40 -65q13 -7 34.5 -7.5t41.5 7t28 19.5q17 28 23 54t10 91q5 92 5 340q0 241 -4 272
q-2 11 -38 19l-36 7v15q47 -4 120 -4q76 0 120 4v-20q-11 0 -23 -1.5t-22 -3t-16 -6.5t-7 -12zM226 583q0 -1 -0.5 -56t-1 -137.5t-0.5 -150.5q0 -136 2 -194q1 -29 76 -29l1 -16q-32 1 -79 1q-108 0 -184 -4v16h4q74 0 78 23q5 30 5 549q0 11 -36 19l-37 7v15q47 -4 121 -4
q77 0 120 4v-20q-69 -5 -69 -23z" />
    <glyph glyph-name="ij" unicode="&#x133;" horiz-adv-x="485" 
d="M170 641q23 0 42 -16.5t19 -38.5q0 -27 -17.5 -44.5t-43.5 -17.5q-19 0 -37 16t-18 40q0 25 17.5 43t37.5 18zM216 422q-2 -173 -2 -385q4 -20 70 -21v-16q-41 3 -109 3q-65 0 -104 -3v16q60 2 63 21v336q-31 10 -63 10v16q90 5 145 23zM439 422q-2 -173 -2 -436
q0 -84 -51.5 -139.5t-101.5 -55.5q-33 0 -66.5 20t-33.5 51q0 39 16.5 57.5t40.5 18.5q18 0 30.5 -14t12.5 -32q0 -39 -32 -47q3 -11 16.5 -17.5t26.5 -6.5q40 0 55 28q7 13 7 137v387q-10 4 -19 5.5t-22 2.5t-22 2v16q49 0 145 23zM409 641q19 0 35 -18.5t16 -36.5
q0 -19 -17 -41.5t-37 -22.5q-30 0 -47.5 16t-17.5 48q0 25 22 40t46 15z" />
    <glyph glyph-name="Jcircumflex" unicode="&#x134;" horiz-adv-x="385" 
d="M76 644l138 151l123 -148l-13 -11l-113 103l-121 -103zM253 583q-4 -60 -4 -318q0 -32 0.5 -85t0.5 -76q0 -93 -10 -149.5t-39 -97.5q-51 -71 -147 -71q-65 0 -97 24.5t-32 58.5q0 27 18.5 46.5t46.5 19.5q31 0 49 -17.5t18 -43.5q0 -40 -40 -65q13 -7 34.5 -7.5t41.5 7
t28 19.5q17 28 23 54t10 91q5 92 5 340q0 241 -4 272q-2 11 -38 19l-36 7v15q47 -4 120 -4q76 0 120 4v-20q-11 0 -23 -1.5t-22 -3t-16 -6.5t-7 -12z" />
    <glyph glyph-name="jcircumflex" unicode="&#x135;" horiz-adv-x="286" 
d="M193 422q-2 -173 -3 -436q0 -84 -51.5 -139.5t-101.5 -55.5q-33 0 -66 20t-33 51q0 39 16 57.5t40 18.5q18 0 30.5 -14t12.5 -32q0 -39 -32 -47q3 -11 16.5 -17.5t26.5 -6.5q40 0 55 28q7 13 8 137v387q-10 4 -19.5 5.5t-22.5 2.5t-22 2v16q50 0 146 23zM15 458l139 151
l122 -148l-13 -11l-112 103l-121 -103z" />
    <glyph glyph-name="Kcommaaccent" unicode="&#x136;" horiz-adv-x="670" 
d="M471 545q1 3 5 12t4 12q-1 19 -17.5 28.5t-33.5 10.5l-2 15q34 -2 73 -2q69 0 124 5v-15l-15 -1q-14 -2 -35 -9t-33 -19q-48 -45 -93.5 -99.5t-97.5 -122.5q41 -53 80 -107.5t69 -94t78 -92.5q23 -26 46.5 -35t62.5 -13l-2 -19q-144 6 -145 6q-32 0 -60 -3
q-126 203 -192 295l-51 -66l-2 -187q0 -29 76 -29l1 -16q-32 1 -77 1q-99 0 -175 -4v16h4q61 0 68 23q7 30 7 398q0 141 -2 152q-3 11 -38 19l-36 7v15q47 -4 124 -4q82 0 126 4v-20q-74 -5 -78 -23v-324l116 135q115 136 121 151z" />
    <glyph glyph-name="kcommaaccent" unicode="&#x137;" horiz-adv-x="505" 
d="M213 -161q-23 0 -40.5 20.5t-17.5 44.5q0 33 21.5 51.5t45.5 18.5q25 0 48 -22t23 -58q0 -53 -35 -101t-69 -53l-6 16q25 11 48.5 42t24.5 55q-24 -14 -43 -14zM199 197l-15 -17q-2 -32 -2 -78q0 -29 1 -50q1 -12 10 -20q8 -8 17.5 -11t43.5 -5v-16q-38 3 -104 3
q-71 0 -119 -3v16q73 4 73 21q3 93 4 303q0 171 -4 268q-12 18 -73 21v16h5q54 0 150 23l-3 -462l101 115q14 17 14 32q0 17 -23 21q0 3 0.5 10.5t0.5 10.5h168v-19q-83 -8 -116 -40l-80 -98q33 -34 68 -74.5t74 -80.5q40 -40 63.5 -55.5t44.5 -15.5h5v-14l-138 -2
q-12 23 -43.5 61.5t-62.5 72.5t-60 67z" />
    <glyph glyph-name="kgreenlandic" unicode="&#x138;" horiz-adv-x="555" 
d="M217 197l-14 -17v-140q0 -9 25 -16t44 -8v-16q-38 3 -104 3q-71 0 -119 -3v16q17 1 43.5 9t28.5 15q6 20 6 147q0 10 -1 20q0 58 -3 155q-12 18 -74 21v16q113 0 156 11l-3 -204l100 115q14 17 14 32q0 17 -22 21v8q0 8 1 13h168v-19q-83 -8 -117 -40l-80 -98
q38 -39 74.5 -80t68.5 -75q67 -71 112 -71v-14l-138 -2q-12 23 -43.5 61.5t-62.5 72.5t-60 67z" />
    <glyph glyph-name="Lacute" unicode="&#x139;" horiz-adv-x="587" 
d="M245 68q0 -45 36 -45l129 -1q35 0 61.5 39t32.5 91h22l-16 -155h-461v16l23 1q24 2 47 9t24 18q5 54 5 345q0 165 -2 199q-1 13 -42 19l-42 7v18l257 1v-16q-70 -4 -72 -29q-3 -239 -3 -288q0 -25 0.5 -96t0.5 -133z" />
    <glyph glyph-name="lacute" unicode="&#x13a;" horiz-adv-x="258" 
d="M195 657q-4 -96 -5 -216q0 -48 1.5 -179.5t1.5 -224.5q2 -10 27 -15t42 -6v-16q-44 5 -105 5q-71 0 -116 -5v16q66 3 68 21q3 95 3 263q0 179 -3 298q-25 20 -68 20v17q53 3 154 22z" />
    <glyph glyph-name="Lcommaaccent" unicode="&#x13b;" horiz-adv-x="587" 
d="M245 68q0 -45 36 -45l129 -1q35 0 61.5 39t32.5 91h22l-16 -155h-461v16l23 1q24 2 47 9t24 18q5 54 5 345q0 165 -2 199q-1 13 -42 19l-42 7v18l257 1v-16q-70 -4 -72 -29q-3 -239 -3 -288q0 -25 0.5 -96t0.5 -133z" />
    <glyph glyph-name="lcommaaccent" unicode="&#x13c;" horiz-adv-x="258" 
d="M110 -156q-23 0 -40.5 20.5t-17.5 44.5q0 33 21.5 51.5t45.5 18.5q25 0 48 -22t23 -58q0 -53 -35 -101t-69 -53l-6 16q25 11 48.5 42t24.5 55q-24 -14 -43 -14zM195 657q-4 -96 -5 -216q0 -48 1.5 -179.5t1.5 -224.5q2 -10 27 -15t42 -6v-16q-44 5 -105 5q-71 0 -116 -5
v16q66 3 68 21q3 95 3 263q0 179 -3 298q-25 20 -68 20v17q53 3 154 22z" />
    <glyph glyph-name="Lcaron" unicode="&#x13d;" horiz-adv-x="587" 
d="M245 68q0 -45 36 -45l129 -1q35 0 61.5 39t32.5 91h22l-16 -155h-461v16l23 1q24 2 47 9t24 18q5 54 5 345q0 165 -2 199q-1 13 -42 19l-42 7v18l257 1v-16q-70 -4 -72 -29q-3 -239 -3 -288q0 -25 0.5 -96t0.5 -133z" />
    <glyph glyph-name="lcaron" unicode="&#x13e;" horiz-adv-x="258" 
d="M251 833l-133 -146l-126 148l13 11l117 -106l116 106zM195 657q-4 -96 -5 -216q0 -48 1.5 -179.5t1.5 -224.5q2 -10 27 -15t42 -6v-16q-44 5 -105 5q-71 0 -116 -5v16q66 3 68 21q3 95 3 263q0 179 -3 298q-25 20 -68 20v17q53 3 154 22z" />
    <glyph glyph-name="Ldot" unicode="&#x13f;" horiz-adv-x="587" 
d="M245 68q0 -45 36 -45l129 -1q35 0 61.5 39t32.5 91h22l-16 -155h-461v16l23 1q24 2 47 9t24 18q5 54 5 345q0 165 -2 199q-1 13 -42 19l-42 7v18l257 1v-16q-70 -4 -72 -29q-3 -239 -3 -288q0 -25 0.5 -96t0.5 -133z" />
    <glyph glyph-name="ldot" unicode="&#x140;" horiz-adv-x="258" 
d="M195 657q-4 -96 -5 -216q0 -48 1.5 -179.5t1.5 -224.5q2 -10 27 -15t42 -6v-16q-44 5 -105 5q-71 0 -116 -5v16q66 3 68 21q3 95 3 263q0 179 -3 298q-25 20 -68 20v17q53 3 154 22z" />
    <glyph glyph-name="Lslash" unicode="&#x141;" horiz-adv-x="587" 
d="M245 68q0 -45 36 -45l129 -1q35 0 61.5 39t32.5 91h22l-16 -155h-461v16l23 1q24 2 47 9t24 18q5 54 5 345q0 165 -2 199q-1 13 -42 19l-42 7v18l257 1v-16q-70 -4 -72 -29q-3 -239 -3 -288q0 -25 0.5 -96t0.5 -133z" />
    <glyph glyph-name="lslash" unicode="&#x142;" horiz-adv-x="258" 
d="M195 657q-4 -96 -5 -216q0 -48 1.5 -179.5t1.5 -224.5q2 -10 27 -15t42 -6v-16q-44 5 -105 5q-71 0 -116 -5v16q66 3 68 21q3 95 3 263q0 179 -3 298q-25 20 -68 20v17q53 3 154 22z" />
    <glyph glyph-name="Nacute" unicode="&#x143;" horiz-adv-x="687" 
d="M270 641l169 145l31 -48l-189 -115zM667 604q-14 -1 -31.5 -3.5t-37.5 -9.5t-20 -18q-2 -33 -3 -184l3 -400h-35l-191 261q-190 261 -201 272q-1 -85 -1 -139q0 -68 2.5 -130t2.5 -154v-40q0 -41 35 -41q57 0 58 -2v-18q-49 3 -111 3q-69 0 -117 -4v16h6q82 0 87 23
q5 298 5 349q0 77 -2 178q-2 11 -47 30l-45 18v18l185 -1q59 -82 194 -258l137 -176l1 379q-1 14 -25 22.5t-57 8.5h-15l-2 23q42 -5 104 -5q57 0 121 4v-22z" />
    <glyph glyph-name="nacute" unicode="&#x144;" horiz-adv-x="575" 
d="M192 474l169 145l31 -48l-189 -115zM66 389q9 -1 19 -1q56 0 118 20l8 -99q63 96 135 97q34 0 60.5 -11t41.5 -27.5t24.5 -38.5t13 -41.5t3.5 -39.5v-205q0 -10 24 -18.5t42 -8.5v-16q-101 4 -125 4q-51 0 -90 -4v16q20 1 43 9t23 17q1 0 1 203q0 55 -19.5 89t-58.5 34
q-32 0 -69 -31t-51 -76v-223q0 -16 70 -22v-16q-41 3 -109 3q-65 0 -104 -3v16q20 0 41.5 8t21.5 18q2 61 2 161q0 95 -2 156q-19 10 -63 14v16z" />
    <glyph glyph-name="Ncommaaccent" unicode="&#x145;" horiz-adv-x="687" 
d="M667 604q-14 -1 -31.5 -3.5t-37.5 -9.5t-20 -18q-2 -33 -3 -184l3 -400h-35l-191 261q-190 261 -201 272q-1 -85 -1 -139q0 -68 2.5 -130t2.5 -154v-40q0 -41 35 -41q57 0 58 -2v-18q-49 3 -111 3q-69 0 -117 -4v16h6q82 0 87 23q5 298 5 349q0 77 -2 178q-2 11 -47 30
l-45 18v18l185 -1q59 -82 194 -258l137 -176l1 379q-1 14 -25 22.5t-57 8.5h-15l-2 23q42 -5 104 -5q57 0 121 4v-22z" />
    <glyph glyph-name="ncommaaccent" unicode="&#x146;" horiz-adv-x="575" 
d="M316 -161q-23 0 -40.5 20.5t-17.5 44.5q0 33 21.5 51.5t45.5 18.5q25 0 48 -22t23 -58q0 -53 -35 -101t-69 -53l-6 16q25 11 48.5 42t24.5 55q-24 -14 -43 -14zM66 389q9 -1 19 -1q56 0 118 20l8 -99q63 96 135 97q34 0 60.5 -11t41.5 -27.5t24.5 -38.5t13 -41.5
t3.5 -39.5v-205q0 -10 24 -18.5t42 -8.5v-16q-101 4 -125 4q-51 0 -90 -4v16q20 1 43 9t23 17q1 0 1 203q0 55 -19.5 89t-58.5 34q-32 0 -69 -31t-51 -76v-223q0 -16 70 -22v-16q-41 3 -109 3q-65 0 -104 -3v16q20 0 41.5 8t21.5 18q2 61 2 161q0 95 -2 156q-19 10 -63 14
v16z" />
    <glyph glyph-name="Ncaron" unicode="&#x147;" horiz-adv-x="687" 
d="M477 778l-133 -146l-126 148l13 11l117 -106l116 106zM667 604q-14 -1 -31.5 -3.5t-37.5 -9.5t-20 -18q-2 -33 -3 -184l3 -400h-35l-191 261q-190 261 -201 272q-1 -85 -1 -139q0 -68 2.5 -130t2.5 -154v-40q0 -41 35 -41q57 0 58 -2v-18q-49 3 -111 3q-69 0 -117 -4v16
h6q82 0 87 23q5 298 5 349q0 77 -2 178q-2 11 -47 30l-45 18v18l185 -1q59 -82 194 -258l137 -176l1 379q-1 14 -25 22.5t-57 8.5h-15l-2 23q42 -5 104 -5q57 0 121 4v-22z" />
    <glyph glyph-name="ncaron" unicode="&#x148;" horiz-adv-x="575" 
d="M438 596l-133 -146l-126 148l13 11l117 -106l116 106zM66 389q9 -1 19 -1q56 0 118 20l8 -99q63 96 135 97q34 0 60.5 -11t41.5 -27.5t24.5 -38.5t13 -41.5t3.5 -39.5v-205q0 -10 24 -18.5t42 -8.5v-16q-101 4 -125 4q-51 0 -90 -4v16q20 1 43 9t23 17q1 0 1 203
q0 55 -19.5 89t-58.5 34q-32 0 -69 -31t-51 -76v-223q0 -16 70 -22v-16q-41 3 -109 3q-65 0 -104 -3v16q20 0 41.5 8t21.5 18q2 61 2 161q0 95 -2 156q-19 10 -63 14v16z" />
    <glyph glyph-name="napostrophe" unicode="&#x149;" horiz-adv-x="575" 
d="M66 389q9 -1 19 -1q56 0 118 20l8 -99q63 96 135 97q34 0 60.5 -11t41.5 -27.5t24.5 -38.5t13 -41.5t3.5 -39.5v-205q0 -10 24 -18.5t42 -8.5v-16q-101 4 -125 4q-51 0 -90 -4v16q20 1 43 9t23 17q1 0 1 203q0 55 -19.5 89t-58.5 34q-32 0 -69 -31t-51 -76v-223
q0 -16 70 -22v-16q-41 3 -109 3q-65 0 -104 -3v16q20 0 41.5 8t21.5 18q2 61 2 161q0 95 -2 156q-19 10 -63 14v16z" />
    <glyph glyph-name="Omacron" unicode="&#x14c;" horiz-adv-x="792" 
d="M416 8q94 0 153.5 85.5t59.5 218.5q0 158 -58 240t-163 82q-50 0 -89.5 -14t-75.5 -47t-55.5 -99.5t-19.5 -162.5q0 -36 6.5 -73.5t24.5 -79.5t44.5 -74.5t71.5 -54t101 -21.5zM416 651q36 0 75 -8t86 -31.5t82.5 -59.5t59.5 -98.5t24 -141.5q0 -77 -30.5 -140
t-79.5 -102.5t-106 -60.5t-113 -21q-151 0 -258 86.5t-107 229.5q0 82 23.5 145t60.5 100.5t87.5 61t98 32t97.5 8.5z" />
    <glyph glyph-name="omacron" unicode="&#x14d;" horiz-adv-x="476" 
d="M264 8q54 0 84 50t30 144q0 78 -32 136.5t-84 58.5q-35 0 -60 -19t-36.5 -51.5t-17 -64.5t-5.5 -67q0 -83 32 -135t89 -52zM253 417q89 0 151 -62t62 -142q0 -97 -52 -163.5t-153 -66.5q-210 0 -210 229q0 89 62 147t140 58z" />
    <glyph glyph-name="Obreve" unicode="&#x14e;" horiz-adv-x="792" 
d="M416 8q94 0 153.5 85.5t59.5 218.5q0 158 -58 240t-163 82q-50 0 -89.5 -14t-75.5 -47t-55.5 -99.5t-19.5 -162.5q0 -36 6.5 -73.5t24.5 -79.5t44.5 -74.5t71.5 -54t101 -21.5zM416 651q36 0 75 -8t86 -31.5t82.5 -59.5t59.5 -98.5t24 -141.5q0 -77 -30.5 -140
t-79.5 -102.5t-106 -60.5t-113 -21q-151 0 -258 86.5t-107 229.5q0 82 23.5 145t60.5 100.5t87.5 61t98 32t97.5 8.5z" />
    <glyph glyph-name="obreve" unicode="&#x14f;" horiz-adv-x="476" 
d="M264 8q54 0 84 50t30 144q0 78 -32 136.5t-84 58.5q-35 0 -60 -19t-36.5 -51.5t-17 -64.5t-5.5 -67q0 -83 32 -135t89 -52zM253 417q89 0 151 -62t62 -142q0 -97 -52 -163.5t-153 -66.5q-210 0 -210 229q0 89 62 147t140 58z" />
    <glyph glyph-name="Ohungarumlaut" unicode="&#x150;" horiz-adv-x="792" 
d="M327 668l110 194l46 -34l-139 -173zM446 668l110 194l46 -34l-139 -173zM416 8q94 0 153.5 85.5t59.5 218.5q0 158 -58 240t-163 82q-50 0 -89.5 -14t-75.5 -47t-55.5 -99.5t-19.5 -162.5q0 -36 6.5 -73.5t24.5 -79.5t44.5 -74.5t71.5 -54t101 -21.5zM416 651q36 0 75 -8
t86 -31.5t82.5 -59.5t59.5 -98.5t24 -141.5q0 -77 -30.5 -140t-79.5 -102.5t-106 -60.5t-113 -21q-151 0 -258 86.5t-107 229.5q0 82 23.5 145t60.5 100.5t87.5 61t98 32t97.5 8.5z" />
    <glyph glyph-name="ohungarumlaut" unicode="&#x151;" horiz-adv-x="476" 
d="M144 444l110 194l46 -34l-139 -173zM263 444l110 194l46 -34l-139 -173zM264 8q54 0 84 50t30 144q0 78 -32 136.5t-84 58.5q-35 0 -60 -19t-36.5 -51.5t-17 -64.5t-5.5 -67q0 -83 32 -135t89 -52zM253 417q89 0 151 -62t62 -142q0 -97 -52 -163.5t-153 -66.5
q-210 0 -210 229q0 89 62 147t140 58z" />
    <glyph glyph-name="OE" unicode="&#x152;" horiz-adv-x="792" 
d="M416 8q94 0 153.5 85.5t59.5 218.5q0 158 -58 240t-163 82q-50 0 -89.5 -14t-75.5 -47t-55.5 -99.5t-19.5 -162.5q0 -36 6.5 -73.5t24.5 -79.5t44.5 -74.5t71.5 -54t101 -21.5zM416 651q36 0 75 -8t86 -31.5t82.5 -59.5t59.5 -98.5t24 -141.5q0 -77 -30.5 -140
t-79.5 -102.5t-106 -60.5t-113 -21q-151 0 -258 86.5t-107 229.5q0 82 23.5 145t60.5 100.5t87.5 61t98 32t97.5 8.5z" />
    <glyph glyph-name="oe" unicode="&#x153;" horiz-adv-x="442" 
d="M399 75q-22 -28 -38.5 -45t-46 -32t-63.5 -15q-210 0 -210 229q0 89 62 147t140 58q77 0 158 -102q74 91 151 92q54 0 100.5 -29t60.5 -94q4 -20 4 -40q0 -11 -1 -26l-271 -1v-22q0 -72 27 -130t77 -58q58 0 92 34t47 71l28 -20q-15 -38 -58 -73.5t-113 -35.5
q-75 0 -146 92zM627 233q1 17 1 32q0 31 -5 50q-8 32 -32.5 52.5t-60.5 20.5q-37 0 -58 -42t-26 -114zM368 202q0 78 -32 136.5t-84 58.5q-35 0 -60 -19t-37 -51.5t-17 -64.5t-5 -67q0 -83 32 -135t89 -52q54 0 84 50t30 144z" />
    <glyph glyph-name="Racute" unicode="&#x154;" horiz-adv-x="636" 
d="M630 -2l-181 3v8q0 37 -27 138q-46 168 -122 169l-67 1l1 -248q0 -15 2 -24.5t10 -17.5t23 -8q44 -1 44 -2l-1 -19q-56 4 -149 4q-74 0 -114 -3v17q78 0 82 23q4 16 4 35q4 101 4 255q0 229 -4 253q-2 11 -37 19l-36 8v18q59 -2 140 -2q33 0 83 0.5t64 0.5q38 0 76 -17.5
t65.5 -54.5t27.5 -84q0 -51 -49 -92.5t-116 -43.5q31 -3 57 -17.5t42 -30.5t32.5 -46t23 -48t19.5 -53q31 -82 40 -94q22 -31 63 -33v-14zM344 600q-22 5 -55 5q-30 0 -55 -3v-261q68 -1 69 -1q56 0 85.5 39t29.5 93q0 46 -20 83t-54 45z" />
    <glyph glyph-name="racute" unicode="&#x155;" horiz-adv-x="432" 
d="M143 475l169 145l31 -48l-189 -115zM339 416q38 0 58.5 -22.5t20.5 -64.5q0 -25 -17 -46t-39 -21q-16 0 -33 14t-18 33q0 22 29 42q-3 9 -10.5 18t-23.5 9q-28 0 -53.5 -30.5t-36.5 -60.5l-11 -31l2 -214q1 -20 69 -26v-16q-42 3 -109 3q-63 0 -104 -3v16q15 1 39.5 10
t24.5 16v331q-13 8 -64 10l-2 16q57 0 136 20l11 -120q16 43 49 80t82 37z" />
    <glyph glyph-name="Rcommaaccent" unicode="&#x156;" horiz-adv-x="636" 
d="M630 -2l-181 3v8q0 37 -27 138q-46 168 -122 169l-67 1l1 -248q0 -15 2 -24.5t10 -17.5t23 -8q44 -1 44 -2l-1 -19q-56 4 -149 4q-74 0 -114 -3v17q78 0 82 23q4 16 4 35q4 101 4 255q0 229 -4 253q-2 11 -37 19l-36 8v18q59 -2 140 -2q33 0 83 0.5t64 0.5q38 0 76 -17.5
t65.5 -54.5t27.5 -84q0 -51 -49 -92.5t-116 -43.5q31 -3 57 -17.5t42 -30.5t32.5 -46t23 -48t19.5 -53q31 -82 40 -94q22 -31 63 -33v-14zM344 600q-22 5 -55 5q-30 0 -55 -3v-261q68 -1 69 -1q56 0 85.5 39t29.5 93q0 46 -20 83t-54 45z" />
    <glyph glyph-name="rcommaaccent" unicode="&#x157;" horiz-adv-x="432" 
d="M162 -159q-23 0 -40.5 20.5t-17.5 44.5q0 33 21.5 51.5t45.5 18.5q25 0 48 -22t23 -58q0 -53 -35 -101t-69 -53l-6 16q25 11 48.5 42t24.5 55q-24 -14 -43 -14zM339 416q38 0 58.5 -22.5t20.5 -64.5q0 -25 -17 -46t-39 -21q-16 0 -33 14t-18 33q0 22 29 42q-3 9 -10.5 18
t-23.5 9q-28 0 -53.5 -30.5t-36.5 -60.5l-11 -31l2 -214q1 -20 69 -26v-16q-42 3 -109 3q-63 0 -104 -3v16q15 1 39.5 10t24.5 16v331q-13 8 -64 10l-2 16q57 0 136 20l11 -120q16 43 49 80t82 37z" />
    <glyph glyph-name="Rcaron" unicode="&#x158;" horiz-adv-x="636" 
d="M426 784l-133 -146l-126 148l13 11l117 -106l116 106zM630 -2l-181 3v8q0 37 -27 138q-46 168 -122 169l-67 1l1 -248q0 -15 2 -24.5t10 -17.5t23 -8q44 -1 44 -2l-1 -19q-56 4 -149 4q-74 0 -114 -3v17q78 0 82 23q4 16 4 35q4 101 4 255q0 229 -4 253q-2 11 -37 19
l-36 8v18q59 -2 140 -2q33 0 83 0.5t64 0.5q38 0 76 -17.5t65.5 -54.5t27.5 -84q0 -51 -49 -92.5t-116 -43.5q31 -3 57 -17.5t42 -30.5t32.5 -46t23 -48t19.5 -53q31 -82 40 -94q22 -31 63 -33v-14zM344 600q-22 5 -55 5q-30 0 -55 -3v-261q68 -1 69 -1q56 0 85.5 39
t29.5 93q0 46 -20 83t-54 45z" />
    <glyph glyph-name="rcaron" unicode="&#x159;" horiz-adv-x="432" 
d="M363 596l-133 -146l-126 148l13 11l117 -106l116 106zM339 416q38 0 58.5 -22.5t20.5 -64.5q0 -25 -17 -46t-39 -21q-16 0 -33 14t-18 33q0 22 29 42q-3 9 -10.5 18t-23.5 9q-28 0 -53.5 -30.5t-36.5 -60.5l-11 -31l2 -214q1 -20 69 -26v-16q-42 3 -109 3q-63 0 -104 -3
v16q15 1 39.5 10t24.5 16v331q-13 8 -64 10l-2 16q57 0 136 20l11 -120q16 43 49 80t82 37z" />
    <glyph glyph-name="Sacute" unicode="&#x15a;" horiz-adv-x="587" 
d="M190 684l169 145l31 -48l-189 -115zM301 653q77 0 131 -57q25 3 40 42h14l-3 -194h-19q-3 35 -8 66.5t-22 54.5q-47 69 -135 69q-47 0 -80 -36.5t-33 -75.5q0 -42 40 -79t106 -61q91 -34 146.5 -87t55.5 -119q0 -85 -56 -138t-186 -53q-28 0 -54 6t-42.5 15t-32 18.5
t-22.5 15.5q-20 -9 -37 -41h-21l2 182h20q17 -82 58.5 -127t124.5 -45q140 0 140 135q0 88 -148 140q-80 28 -126 79.5t-46 109.5q-1 180 193 180z" />
    <glyph glyph-name="sacute" unicode="&#x15b;" horiz-adv-x="399" 
d="M119 475l169 145l31 -48l-189 -115zM199 -13q-20 0 -48 10t-47 19l-17 11l-5 -29h-19l-2 140l17 -2q5 -49 36 -89.5t85 -40.5q94 0 94 76q0 55 -119 98q-51 18 -78.5 43t-27.5 68q0 60 41 94.5t108 34.5q29 0 52.5 -10t32.5 -19l9 -10l3 30h19l-2 -126h-18q-2 14 -3 21.5
t-5 25t-11 27.5t-18 21.5t-29 17t-40 5.5q-31 0 -50.5 -19.5t-19.5 -49.5q0 -17 7.5 -30.5t21 -23t26.5 -15t33 -12.5t30 -11q110 -49 110 -120q0 -72 -40 -103.5t-126 -31.5z" />
    <glyph glyph-name="Scircumflex" unicode="&#x15c;" horiz-adv-x="587" 
d="M301 653q77 0 131 -57q25 3 40 42h14l-3 -194h-19q-3 35 -8 66.5t-22 54.5q-47 69 -135 69q-47 0 -80 -36.5t-33 -75.5q0 -42 40 -79t106 -61q91 -34 146.5 -87t55.5 -119q0 -85 -56 -138t-186 -53q-28 0 -54 6t-42.5 15t-32 18.5t-22.5 15.5q-20 -9 -37 -41h-21l2 182
h20q17 -82 58.5 -127t124.5 -45q140 0 140 135q0 88 -148 140q-80 28 -126 79.5t-46 109.5q-1 180 193 180z" />
    <glyph glyph-name="scircumflex" unicode="&#x15d;" horiz-adv-x="399" 
d="M199 -13q-20 0 -48 10t-47 19l-17 11l-5 -29h-19l-2 140l17 -2q5 -49 36 -89.5t85 -40.5q94 0 94 76q0 55 -119 98q-51 18 -78.5 43t-27.5 68q0 60 41 94.5t108 34.5q29 0 52.5 -10t32.5 -19l9 -10l3 30h19l-2 -126h-18q-2 14 -3 21.5t-5 25t-11 27.5t-18 21.5t-29 17
t-40 5.5q-31 0 -50.5 -19.5t-19.5 -49.5q0 -17 7.5 -30.5t21 -23t26.5 -15t33 -12.5t30 -11q110 -49 110 -120q0 -72 -40 -103.5t-126 -31.5z" />
    <glyph glyph-name="Scedilla" unicode="&#x15e;" horiz-adv-x="587" 
d="M291 -1l22 -1l-19 -51q54 0 72 -13t18 -39q0 -33 -40 -60.5t-99 -27.5l2 22q47 0 69.5 11.5t22.5 41.5q0 31 -85 31zM301 653q77 0 131 -57q25 3 40 42h14l-3 -194h-19q-3 35 -8 66.5t-22 54.5q-47 69 -135 69q-47 0 -80 -36.5t-33 -75.5q0 -42 40 -79t106 -61
q91 -34 146.5 -87t55.5 -119q0 -85 -56 -138t-186 -53q-28 0 -54 6t-42.5 15t-32 18.5t-22.5 15.5q-20 -9 -37 -41h-21l2 182h20q17 -82 58.5 -127t124.5 -45q140 0 140 135q0 88 -148 140q-80 28 -126 79.5t-46 109.5q-1 180 193 180z" />
    <glyph glyph-name="scedilla" unicode="&#x15f;" horiz-adv-x="399" 
d="M193 -1l22 -1l-19 -51q54 0 72 -13t18 -39q0 -33 -40 -60.5t-100 -27.5l2 22q47 0 70 11.5t23 41.5q0 31 -85 31zM199 -13q-20 0 -48 10t-47 19l-17 11l-5 -29h-19l-2 140l17 -2q5 -49 36 -89.5t85 -40.5q94 0 94 76q0 55 -119 98q-51 18 -78.5 43t-27.5 68q0 60 41 94.5
t108 34.5q29 0 52.5 -10t32.5 -19l9 -10l3 30h19l-2 -126h-18q-2 14 -3 21.5t-5 25t-11 27.5t-18 21.5t-29 17t-40 5.5q-31 0 -50.5 -19.5t-19.5 -49.5q0 -17 7.5 -30.5t21 -23t26.5 -15t33 -12.5t30 -11q110 -49 110 -120q0 -72 -40 -103.5t-126 -31.5z" />
    <glyph glyph-name="Scaron" unicode="&#x160;" horiz-adv-x="587" 
d="M443 814l-133 -146l-126 148l13 11l117 -106l116 106zM301 653q77 0 131 -57q25 3 40 42h14l-3 -194h-19q-3 35 -8 66.5t-22 54.5q-47 69 -135 69q-47 0 -80 -36.5t-33 -75.5q0 -42 40 -79t106 -61q91 -34 146.5 -87t55.5 -119q0 -85 -56 -138t-186 -53q-28 0 -54 6
t-42.5 15t-32 18.5t-22.5 15.5q-20 -9 -37 -41h-21l2 182h20q17 -82 58.5 -127t124.5 -45q140 0 140 135q0 88 -148 140q-80 28 -126 79.5t-46 109.5q-1 180 193 180z" />
    <glyph glyph-name="scaron" unicode="&#x161;" horiz-adv-x="399" 
d="M336 596l-133 -146l-126 148l13 11l117 -106l116 106zM199 -13q-20 0 -48 10t-47 19l-17 11l-5 -29h-19l-2 140l17 -2q5 -49 36 -89.5t85 -40.5q94 0 94 76q0 55 -119 98q-51 18 -78.5 43t-27.5 68q0 60 41 94.5t108 34.5q29 0 52.5 -10t32.5 -19l9 -10l3 30h19l-2 -126
h-18q-2 14 -3 21.5t-5 25t-11 27.5t-18 21.5t-29 17t-40 5.5q-31 0 -50.5 -19.5t-19.5 -49.5q0 -17 7.5 -30.5t21 -23t26.5 -15t33 -12.5t30 -11q110 -49 110 -120q0 -72 -40 -103.5t-126 -31.5z" />
    <glyph glyph-name="Tcommaaccent" unicode="&#x162;" horiz-adv-x="600" 
d="M232 37q22 28 22 57l1 511q-104 1 -105 1q-24 0 -43 -18t-29 -44.5t-16.5 -52t-7.5 -48.5h-19l4 186q112 -3 285 -3q163 0 251 3l3 -186h-20q-9 160 -83 161l-117 1l1 -511q0 -35 19 -57q15 -18 82 -19v-19h-307v19h6h6q53 1 67 19z" />
    <glyph glyph-name="tcommaaccent" unicode="&#x163;" horiz-adv-x="387" 
d="M211 -159q-23 0 -40.5 20.5t-17.5 44.5q0 33 21.5 51.5t45.5 18.5q25 0 48 -22t23 -58q0 -53 -35 -101t-69 -53l-6 16q25 11 48.5 42t24.5 55q-24 -14 -43 -14zM324 386h-106v-272q0 -43 13.5 -69t36.5 -26q26 0 43.5 21t32.5 63l22 -11q-9 -24 -16 -37t-20 -30
t-32 -24.5t-46 -7.5q-60 0 -90 34q-14 15 -20 42.5t-6 80.5v236h-84v13q24 0 58.5 13.5t47.5 29.5q13 17 26 48.5t13 62.5h23q-4 -32 -4 -98v-22v-23l114 2z" />
    <glyph glyph-name="Tcaron" unicode="&#x164;" horiz-adv-x="600" 
d="M440 814l-133 -146l-126 148l13 11l117 -106l116 106zM232 37q22 28 22 57l1 511q-104 1 -105 1q-24 0 -43 -18t-29 -44.5t-16.5 -52t-7.5 -48.5h-19l4 186q112 -3 285 -3q163 0 251 3l3 -186h-20q-9 160 -83 161l-117 1l1 -511q0 -35 19 -57q15 -18 82 -19v-19h-307v19
h6h6q53 1 67 19z" />
    <glyph glyph-name="tcaron" unicode="&#x165;" horiz-adv-x="387" 
d="M336 718l-133 -146l-126 148l13 11l117 -106l116 106zM324 386h-106v-272q0 -43 13.5 -69t36.5 -26q26 0 43.5 21t32.5 63l22 -11q-9 -24 -16 -37t-20 -30t-32 -24.5t-46 -7.5q-60 0 -90 34q-14 15 -20 42.5t-6 80.5v236h-84v13q24 0 58.5 13.5t47.5 29.5q13 17 26 48.5
t13 62.5h23q-4 -32 -4 -98v-22v-23l114 2z" />
    <glyph glyph-name="Tbar" unicode="&#x166;" horiz-adv-x="600" 
d="M232 37q22 28 22 57l1 511q-104 1 -105 1q-24 0 -43 -18t-29 -44.5t-16.5 -52t-7.5 -48.5h-19l4 186q112 -3 285 -3q163 0 251 3l3 -186h-20q-9 160 -83 161l-117 1l1 -511q0 -35 19 -57q15 -18 82 -19v-19h-307v19h6h6q53 1 67 19z" />
    <glyph glyph-name="tbar" unicode="&#x167;" horiz-adv-x="387" 
d="M324 386h-106v-272q0 -43 13.5 -69t36.5 -26q26 0 43.5 21t32.5 63l22 -11q-9 -24 -16 -37t-20 -30t-32 -24.5t-46 -7.5q-60 0 -90 34q-14 15 -20 42.5t-6 80.5v236h-84v13q24 0 58.5 13.5t47.5 29.5q13 17 26 48.5t13 62.5h23q-4 -32 -4 -98v-22v-23l114 2z" />
    <glyph glyph-name="Utilde" unicode="&#x168;" horiz-adv-x="762" 
d="M285 663l-12 1q0 28 19.5 61t48.5 33q18 0 35.5 -15.5t36 -31t38.5 -15.5q31 0 40.5 16.5t9.5 44.5h16q0 -14 -2.5 -29t-9.5 -34.5t-22 -32.5t-38 -13q-19 0 -35.5 11t-26.5 23t-22 22.5t-24 10.5q-19 0 -35.5 -17.5t-16.5 -34.5zM240 218q0 -54 10.5 -93.5t26.5 -61
t40.5 -34t45.5 -16t49 -3.5q39 0 67.5 10t52.5 33t36.5 66.5t12.5 107.5v27.5v44.5q0 138 -4 286q-2 11 -43 19l-41 7v15q47 -4 109 -4q66 0 110 4v-20q-47 -3 -88 -23q-3 -63 -3 -153l3 -191q0 -121 -58 -187.5t-172 -70.5q-35 0 -69 6.5t-70 23.5t-62.5 43.5t-44 70
t-17.5 98.5q0 3 1.5 32.5t3.5 84.5t2 122q0 61 -2 123q-2 11 -43 19l-41 7v15q47 -4 131 -4q90 0 134 4v-20q-59 -5 -77 -23q-1 -66 -1 -160z" />
    <glyph glyph-name="utilde" unicode="&#x169;" horiz-adv-x="555" 
d="M188 455l-12 1q0 28 19.5 61t48.5 33q18 0 35.5 -15.5t36 -31t38.5 -15.5q31 0 40.5 16.5t9.5 44.5h16q0 -14 -2.5 -29t-9.5 -34.5t-22 -32.5t-38 -13q-19 0 -35.5 11t-26.5 23t-22 22.5t-24 10.5q-19 0 -35.5 -17.5t-16.5 -34.5zM61 395q88 0 145 11l-2 -274
q2 -115 54 -115q29 0 56 20.5t44 44.5t27 45l10 20v220q-19 12 -59 12v16q94 0 147 11l-8 -199v-50l1 -129q12 -10 61 -12v-12q-76 -4 -137 -19l-7 109l-12 -16q-12 -16 -31 -36t-48 -36.5t-56 -16.5q-69 0 -97 36t-28 105l-1 241q-16 8 -59 8v16z" />
    <glyph glyph-name="Umacron" unicode="&#x16a;" horiz-adv-x="762" 
d="M240 218q0 -54 10.5 -93.5t26.5 -61t40.5 -34t45.5 -16t49 -3.5q39 0 67.5 10t52.5 33t36.5 66.5t12.5 107.5v27.5v44.5q0 138 -4 286q-2 11 -43 19l-41 7v15q47 -4 109 -4q66 0 110 4v-20q-47 -3 -88 -23q-3 -63 -3 -153l3 -191q0 -121 -58 -187.5t-172 -70.5
q-35 0 -69 6.5t-70 23.5t-62.5 43.5t-44 70t-17.5 98.5q0 3 1.5 32.5t3.5 84.5t2 122q0 61 -2 123q-2 11 -43 19l-41 7v15q47 -4 131 -4q90 0 134 4v-20q-59 -5 -77 -23q-1 -66 -1 -160z" />
    <glyph glyph-name="umacron" unicode="&#x16b;" horiz-adv-x="555" 
d="M61 395q88 0 145 11l-2 -274q2 -115 54 -115q29 0 56 20.5t44 44.5t27 45l10 20v220q-19 12 -59 12v16q94 0 147 11l-8 -199v-50l1 -129q12 -10 61 -12v-12q-76 -4 -137 -19l-7 109l-12 -16q-12 -16 -31 -36t-48 -36.5t-56 -16.5q-69 0 -97 36t-28 105l-1 241
q-16 8 -59 8v16z" />
    <glyph glyph-name="Ubreve" unicode="&#x16c;" horiz-adv-x="762" 
d="M240 218q0 -54 10.5 -93.5t26.5 -61t40.5 -34t45.5 -16t49 -3.5q39 0 67.5 10t52.5 33t36.5 66.5t12.5 107.5v27.5v44.5q0 138 -4 286q-2 11 -43 19l-41 7v15q47 -4 109 -4q66 0 110 4v-20q-47 -3 -88 -23q-3 -63 -3 -153l3 -191q0 -121 -58 -187.5t-172 -70.5
q-35 0 -69 6.5t-70 23.5t-62.5 43.5t-44 70t-17.5 98.5q0 3 1.5 32.5t3.5 84.5t2 122q0 61 -2 123q-2 11 -43 19l-41 7v15q47 -4 131 -4q90 0 134 4v-20q-59 -5 -77 -23q-1 -66 -1 -160z" />
    <glyph glyph-name="ubreve" unicode="&#x16d;" horiz-adv-x="555" 
d="M61 395q88 0 145 11l-2 -274q2 -115 54 -115q29 0 56 20.5t44 44.5t27 45l10 20v220q-19 12 -59 12v16q94 0 147 11l-8 -199v-50l1 -129q12 -10 61 -12v-12q-76 -4 -137 -19l-7 109l-12 -16q-12 -16 -31 -36t-48 -36.5t-56 -16.5q-69 0 -97 36t-28 105l-1 241
q-16 8 -59 8v16z" />
    <glyph glyph-name="Uring" unicode="&#x16e;" horiz-adv-x="762" 
d="M240 218q0 -54 10.5 -93.5t26.5 -61t40.5 -34t45.5 -16t49 -3.5q39 0 67.5 10t52.5 33t36.5 66.5t12.5 107.5v27.5v44.5q0 138 -4 286q-2 11 -43 19l-41 7v15q47 -4 109 -4q66 0 110 4v-20q-47 -3 -88 -23q-3 -63 -3 -153l3 -191q0 -121 -58 -187.5t-172 -70.5
q-35 0 -69 6.5t-70 23.5t-62.5 43.5t-44 70t-17.5 98.5q0 3 1.5 32.5t3.5 84.5t2 122q0 61 -2 123q-2 11 -43 19l-41 7v15q47 -4 131 -4q90 0 134 4v-20q-59 -5 -77 -23q-1 -66 -1 -160z" />
    <glyph glyph-name="uring" unicode="&#x16f;" horiz-adv-x="555" 
d="M301 657q36 0 60 -23t24 -59t-24 -61t-60 -25t-60 25t-24 60.5t24 59t60 23.5zM250 573q0 -28 14.5 -42.5t36.5 -14.5q49 0 49 57q0 28 -13.5 43.5t-36.5 15.5t-36.5 -15.5t-13.5 -43.5zM61 395q88 0 145 11l-2 -274q2 -115 54 -115q29 0 56 20.5t44 44.5t27 45l10 20
v220q-19 12 -59 12v16q94 0 147 11l-8 -199v-50l1 -129q12 -10 61 -12v-12q-76 -4 -137 -19l-7 109l-12 -16q-12 -16 -31 -36t-48 -36.5t-56 -16.5q-69 0 -97 36t-28 105l-1 241q-16 8 -59 8v16z" />
    <glyph glyph-name="Uhungarumlaut" unicode="&#x170;" horiz-adv-x="762" 
d="M324 647l110 194l46 -34l-139 -173zM443 647l110 194l46 -34l-139 -173zM240 218q0 -54 10.5 -93.5t26.5 -61t40.5 -34t45.5 -16t49 -3.5q39 0 67.5 10t52.5 33t36.5 66.5t12.5 107.5v27.5v44.5q0 138 -4 286q-2 11 -43 19l-41 7v15q47 -4 109 -4q66 0 110 4v-20
q-47 -3 -88 -23q-3 -63 -3 -153l3 -191q0 -121 -58 -187.5t-172 -70.5q-35 0 -69 6.5t-70 23.5t-62.5 43.5t-44 70t-17.5 98.5q0 3 1.5 32.5t3.5 84.5t2 122q0 61 -2 123q-2 11 -43 19l-41 7v15q47 -4 131 -4q90 0 134 4v-20q-59 -5 -77 -23q-1 -66 -1 -160z" />
    <glyph glyph-name="uhungarumlaut" unicode="&#x171;" horiz-adv-x="555" 
d="M211 444l110 194l46 -34l-139 -173zM330 444l110 194l46 -34l-139 -173zM61 395q88 0 145 11l-2 -274q2 -115 54 -115q29 0 56 20.5t44 44.5t27 45l10 20v220q-19 12 -59 12v16q94 0 147 11l-8 -199v-50l1 -129q12 -10 61 -12v-12q-76 -4 -137 -19l-7 109l-12 -16
q-12 -16 -31 -36t-48 -36.5t-56 -16.5q-69 0 -97 36t-28 105l-1 241q-16 8 -59 8v16z" />
    <glyph glyph-name="Uogonek" unicode="&#x172;" horiz-adv-x="762" 
d="M240 218q0 -54 10.5 -93.5t26.5 -61t40.5 -34t45.5 -16t49 -3.5q39 0 67.5 10t52.5 33t36.5 66.5t12.5 107.5v27.5v44.5q0 138 -4 286q-2 11 -43 19l-41 7v15q47 -4 109 -4q66 0 110 4v-20q-47 -3 -88 -23q-3 -63 -3 -153l3 -191q0 -121 -58 -187.5t-172 -70.5
q-35 0 -69 6.5t-70 23.5t-62.5 43.5t-44 70t-17.5 98.5q0 3 1.5 32.5t3.5 84.5t2 122q0 61 -2 123q-2 11 -43 19l-41 7v15q47 -4 131 -4q90 0 134 4v-20q-59 -5 -77 -23q-1 -66 -1 -160z" />
    <glyph glyph-name="uogonek" unicode="&#x173;" horiz-adv-x="555" 
d="M283 -134q0 38 29.5 67.5t59.5 42.5q16 7 43 14.5t42 7.5q8 0 9 -3q-15 -7 -36 -21.5t-45 -42.5t-24 -54q0 -43 17 -61.5t41 -18.5q25 0 49 24.5t25 46.5q1 -1 11 -5.5t13 -7.5q-11 -31 -41.5 -56.5t-74.5 -25.5q-54 0 -86 26t-32 67zM61 395q88 0 145 11l-2 -274
q2 -115 54 -115q29 0 56 20.5t44 44.5t27 45l10 20v220q-19 12 -59 12v16q94 0 147 11l-8 -199v-50l1 -129q12 -10 61 -12v-12q-76 -4 -137 -19l-7 109l-12 -16q-12 -16 -31 -36t-48 -36.5t-56 -16.5q-69 0 -97 36t-28 105l-1 241q-16 8 -59 8v16z" />
    <glyph glyph-name="Wcircumflex" unicode="&#x174;" horiz-adv-x="1013" 
d="M425 668l138 151l123 -148l-14 -12l-112 104l-121 -104zM367 -11h-39l-189 520q-25 66 -59 83q-25 12 -56 19v15q47 -4 152 -4q115 0 159 4v-20q-13 -1 -46 -9t-36 -14q-5 -11 -5 -31q0 -28 10 -58q19 -55 42 -116.5t48.5 -127t35.5 -92.5q48 131 120 361l36 117l26 -1
q17 -67 90 -250.5t95 -246.5q7 23 45 134.5t65 197.5t27 101q0 14 -21 22l-60 16v15q47 -4 105 -4q59 0 104 4v-20q-41 -2 -67 -17q-9 -6 -24 -30l-16 -23q-20 -63 -56.5 -173t-65 -200t-52.5 -172h-34q-20 62 -51.5 140.5t-72.5 173t-58 135.5q-11 -36 -70.5 -204
t-81.5 -245z" />
    <glyph glyph-name="wcircumflex" unicode="&#x175;" horiz-adv-x="791" 
d="M299 453l138 151l123 -148l-14 -12l-112 104l-121 -104zM470 396l22 -74l78 -250l93 267q1 4 1 8q0 16 -20 26t-39 11l2 14q34 -5 80 -5q47 0 79 5l-2 -14q-29 -2 -50.5 -18t-28.5 -37l-117 -339h-47l-109 299l-116 -299h-46l-116 332q-17 53 -97 57l2 16q67 -3 132 -3
q63 0 103 3l-2 -14h-2q-15 0 -32.5 -11.5t-17.5 -25.5q0 -3 1 -6l78 -266l98 252l23 72h50z" />
    <glyph glyph-name="Ycircumflex" unicode="&#x176;" horiz-adv-x="645" 
d="M222 668l138 151l123 -148l-14 -12l-112 104l-121 -104zM286 247q-68 159 -171 302q-23 32 -45 43q-25 12 -57 19v15q47 -4 139 -4q98 0 142 4v-20q-56 -5 -64 -17q-5 -10 -7 -24l-2 -12q68 -132 139 -252q145 259 146 273q0 14 -23 21l-60 16v15q47 -4 105 -4
q59 0 104 4v-20q-41 -2 -67 -17q-9 -6 -24 -22l-15 -16q-118 -204 -145 -262q0 -38 4 -254q0 -25 82 -25v-19h-272v16h11q74 0 75 23q2 117 5 217z" />
    <glyph glyph-name="ycircumflex" unicode="&#x177;" horiz-adv-x="548" 
d="M174 453l138 151l123 -148l-14 -12l-112 104l-121 -104zM260 395l-2 -14q-24 0 -33.5 -5t-9.5 -21q0 -9 6 -27l101 -256l108 250q7 17 7 29q0 11 -5.5 18t-18 9.5t-21.5 3t-26 0.5l2 14q35 -4 90 -4t80 5l-2 -14q-39 0 -48 -8q-14 -13 -32 -60l-180 -428q-22 -53 -57 -84
q-39 -33 -91 -32q-34 0 -65.5 22.5t-31.5 54.5t16 47.5t38 15.5q25 0 45 -12.5t20 -36.5q0 -35 -40 -51q14 -11 42 -12q16 0 50 30q39 37 78 154l-153 353q-10 26 -35 35q-17 6 -57 10v14q43 -3 105 -3q75 0 120 3z" />
    <glyph glyph-name="Ydieresis" unicode="&#x178;" horiz-adv-x="645" 
d="M250 700q0 15 9.5 25t21.5 10q13 0 23 -9.5t10 -24.5t-9.5 -25t-21.5 -10q-13 0 -23 10t-10 24zM403 700q0 15 9 25t22 10t22 -9.5t9 -24.5t-9 -25t-21 -10q-13 0 -22.5 10t-9.5 24zM286 247q-68 159 -171 302q-23 32 -45 43q-25 12 -57 19v15q47 -4 139 -4q98 0 142 4
v-20q-56 -5 -64 -17q-5 -10 -7 -24l-2 -12q68 -132 139 -252q145 259 146 273q0 14 -23 21l-60 16v15q47 -4 105 -4q59 0 104 4v-20q-41 -2 -67 -17q-9 -6 -24 -22l-15 -16q-118 -204 -145 -262q0 -38 4 -254q0 -25 82 -25v-19h-272v16h11q74 0 75 23q2 117 5 217z" />
    <glyph glyph-name="Zacute" unicode="&#x179;" horiz-adv-x="600" 
d="M250 676l169 145l31 -48l-189 -115zM51 7q206 307 373 600l-236 -4q-19 0 -34.5 -9.5t-24.5 -21t-17 -31.5t-10.5 -29.5t-6.5 -27.5h-19l3 145q92 -6 207 -6q90 0 262 6v-22l-300 -496q-39 -69 -39 -95q0 -10 8 -10q178 0 225 6q26 3 57.5 50.5t37.5 89.5h22l-23 -161
q-115 2 -227 2q-67 0 -258 -2v16z" />
    <glyph glyph-name="zacute" unicode="&#x17a;" horiz-adv-x="465" 
d="M149 475l169 145l31 -48l-189 -115zM89 399l349 2l4 -20q-259 -304 -275 -353l163 3q33 1 56.5 33.5t26.5 92.5h18l-11 -157h-350l-3 41q39 45 159.5 189.5t121.5 146.5l-196 -3q-19 0 -29.5 -20t-12 -44.5t-5.5 -46.5h-21z" />
    <glyph glyph-name="Zdotaccent" unicode="&#x17b;" horiz-adv-x="600" 
d="M51 7q206 307 373 600l-236 -4q-19 0 -34.5 -9.5t-24.5 -21t-17 -31.5t-10.5 -29.5t-6.5 -27.5h-19l3 145q92 -6 207 -6q90 0 262 6v-22l-300 -496q-39 -69 -39 -95q0 -10 8 -10q178 0 225 6q26 3 57.5 50.5t37.5 89.5h22l-23 -161q-115 2 -227 2q-67 0 -258 -2v16z" />
    <glyph glyph-name="zdotaccent" unicode="&#x17c;" horiz-adv-x="465" 
d="M89 399l349 2l4 -20q-259 -304 -275 -353l163 3q33 1 56.5 33.5t26.5 92.5h18l-11 -157h-350l-3 41q39 45 159.5 189.5t121.5 146.5l-196 -3q-19 0 -29.5 -20t-12 -44.5t-5.5 -46.5h-21z" />
    <glyph glyph-name="Zcaron" unicode="&#x17d;" horiz-adv-x="600" 
d="M474 813l-133 -146l-126 148l13 11l117 -106l116 106zM51 7q206 307 373 600l-236 -4q-19 0 -34.5 -9.5t-24.5 -21t-17 -31.5t-10.5 -29.5t-6.5 -27.5h-19l3 145q92 -6 207 -6q90 0 262 6v-22l-300 -496q-39 -69 -39 -95q0 -10 8 -10q178 0 225 6q26 3 57.5 50.5
t37.5 89.5h22l-23 -161q-115 2 -227 2q-67 0 -258 -2v16z" />
    <glyph glyph-name="zcaron" unicode="&#x17e;" horiz-adv-x="465" 
d="M388 596l-133 -146l-126 148l13 11l117 -106l116 106zM89 399l349 2l4 -20q-259 -304 -275 -353l163 3q33 1 56.5 33.5t26.5 92.5h18l-11 -157h-350l-3 41q39 45 159.5 189.5t121.5 146.5l-196 -3q-19 0 -29.5 -20t-12 -44.5t-5.5 -46.5h-21z" />
    <glyph glyph-name="circumflex" unicode="&#x2c6;" horiz-adv-x="421" 
d="M76 458l138 151l123 -148l-13 -11l-113 103l-121 -103z" />
    <glyph glyph-name="caron" unicode="&#x2c7;" horiz-adv-x="421" 
d="M332 596l-133 -146l-126 148l13 11l117 -106l116 106z" />
    <glyph glyph-name="ring" unicode="&#x2da;" horiz-adv-x="217" 
d="M121 657q36 0 60 -23t24 -59t-24 -61t-60 -25t-60 25t-24 60.5t24 59t60 23.5zM70 573q0 -28 14.5 -42.5t36.5 -14.5q49 0 49 57q0 28 -13.5 43.5t-36.5 15.5t-36.5 -15.5t-13.5 -43.5z" />
    <glyph glyph-name="tilde" unicode="&#x2dc;" horiz-adv-x="256" 
d="M18 274l-12 1q0 28 19.5 61t48.5 33q18 0 35.5 -15.5t36 -31t38.5 -15.5q31 0 40.5 16.5t9.5 44.5h16q0 -14 -2.5 -29t-9.5 -34.5t-22 -32.5t-38 -13q-19 0 -35.5 11t-26.5 23t-22 22.5t-24 10.5q-19 0 -35.5 -17.5t-16.5 -34.5z" />
    <glyph glyph-name="hungarumlaut" unicode="&#x2dd;" horiz-adv-x="459" 
d="M106 444l110 194l46 -34l-139 -173zM225 444l110 194l46 -34l-139 -173z" />
    <glyph glyph-name="pi" unicode="&#x3c0;" 
d="M254 447q99 0 169.5 -70t70.5 -169t-70.5 -169.5t-169.5 -70.5t-169.5 70.5t-70.5 169.5t70.5 169t169.5 70zM254 423q-89 0 -152 -63t-63 -152t63 -152t152 -63t152 63t63 152t-63 152t-152 63zM390 275q0 -37 -27.5 -61t-74.5 -24q-16 0 -26 3l-10 3v-57.5v-29.5v-10
q0 -8 11 -14.5t31 -6.5v-19h-131v21l19 4q19 4 20.5 12t1.5 58q0 38 -0.5 101.5t-0.5 66.5q-1 6 -18 11l-16 5v15q29 0 73.5 -0.5t56.5 -0.5q34 0 62.5 -19.5t28.5 -57.5zM342 275q0 29 -8.5 43.5t-35.5 14.5q-7 0 -22.5 0.5t-23.5 0.5v-125q0 -2 33 -2q28 0 42 20t15 48z
" />
    <glyph glyph-name="endash" unicode="&#x2013;" horiz-adv-x="532" 
d="M35 246h463v-53h-463v53z" />
    <glyph glyph-name="emdash" unicode="&#x2014;" horiz-adv-x="1044" 
d="M34 248h976v-53h-976v53z" />
    <glyph glyph-name="quoteleft" unicode="&#x2018;" horiz-adv-x="254" 
d="M140 575q30 0 50 -23t20 -52q0 -34 -24 -54.5t-50.5 -20.5t-52.5 23.5t-26 61.5q0 59 38 102.5t78 49.5l8 -16q-23 -9 -52.5 -35t-31.5 -51q25 15 43 15z" />
    <glyph glyph-name="quoteright" unicode="&#x2019;" horiz-adv-x="254" 
d="M127 511q-30 0 -50 23t-20 53q0 34 24 54.5t51 20.5t52.5 -24t25.5 -61q0 -59 -38 -103t-78 -49l-8 15q23 9 52.5 35.5t31.5 50.5q-25 -15 -43 -15z" />
    <glyph glyph-name="quotesinglbase" unicode="&#x201a;" horiz-adv-x="254" 
d="M127 -13q-30 0 -50 23t-20 52q0 34 24 54.5t51 20.5t52.5 -23.5t25.5 -61.5q0 -59 -38 -102.5t-78 -48.5l-8 15q23 9 52.5 35t31.5 51q-25 -15 -43 -15z" />
    <glyph glyph-name="quotedblleft" unicode="&#x201c;" horiz-adv-x="466" 
d="M346 575q30 0 50 -23t20 -52q0 -34 -24 -54.5t-51 -20.5t-52.5 23.5t-25.5 61.5q0 59 38 102.5t78 49.5l8 -16q-23 -9 -52.5 -35t-31.5 -51q25 15 43 15zM140 575q30 0 50 -23t20 -52q0 -34 -24 -54.5t-50.5 -20.5t-52.5 23.5t-26 61.5q0 59 38 102.5t78 49.5l8 -16
q-23 -9 -52.5 -35t-31.5 -51q25 15 43 15z" />
    <glyph glyph-name="quotedblright" unicode="&#x201d;" horiz-adv-x="466" 
d="M127 511q-30 0 -50 23t-20 53q0 34 24 54.5t51 20.5t52.5 -24t25.5 -61q0 -59 -38 -103t-78 -49l-8 15q23 9 52.5 35.5t31.5 50.5q-25 -15 -43 -15zM333 511q-30 0 -50 23t-20 53q0 34 24 54.5t51 20.5t52.5 -24t25.5 -61q0 -59 -38 -103t-78 -49l-8 15q23 9 52.5 35.5
t31.5 50.5q-25 -15 -43 -15z" />
    <glyph glyph-name="quotedblbase" unicode="&#x201e;" horiz-adv-x="466" 
d="M123 -12q-30 0 -50 23t-20 52q0 34 24 54.5t51 20.5t52.5 -23.5t25.5 -61.5q0 -59 -38 -102.5t-78 -48.5l-8 15q23 9 52.5 35t31.5 51q-25 -15 -43 -15zM329 -12q-30 0 -50 23t-20 52q0 34 24 54.5t50.5 20.5t52.5 -23.5t26 -61.5q0 -59 -38 -102.5t-78 -48.5l-8 15
q23 9 52.5 35t31.5 51q-25 -15 -43 -15z" />
    <glyph glyph-name="ellipsis" unicode="&#x2026;" horiz-adv-x="664" 
d="M525 138q29 0 53.5 -17.5t24.5 -53.5q0 -79 -75 -79q-34 0 -55 22.5t-21 52.5q0 34 23 54.5t50 20.5zM134 138q29 0 53.5 -17.5t24.5 -53.5q0 -79 -75 -79q-34 0 -55.5 22.5t-21.5 52.5q0 34 23.5 54.5t50.5 20.5zM331 138q29 0 53.5 -17.5t24.5 -53.5q0 -79 -75 -79
q-34 0 -55.5 22.5t-21.5 52.5q0 34 23.5 54.5t50.5 20.5z" />
    <glyph glyph-name="perthousand" unicode="&#x2030;" horiz-adv-x="583" 
 />
    <glyph glyph-name="partialdiff" unicode="&#x2202;" horiz-adv-x="837" 
d="M551 666q-29 0 -52.5 -19.5t-33.5 -44.5q-14 -33 -14 -118v-13v-11q0 -9 1 -27.5t1 -32.5h126v-22h-126l6 -331q0 -8 8.5 -13.5t21 -8t25.5 -4.5t24 -3v-18q-131 4 -279 4q-138 0 -225 -4v18q34 0 60 7.5t26 19.5l4 333h-84v22h84v17q0 55 8 101.5t21 68.5q55 94 155 94
q28 0 59.5 -16t55.5 -44q55 60 131 60q67 0 112 -40q48 9 71 16q-4 -96 -4 -216q0 -48 1 -179.5t1 -224.5q2 -10 27 -15t43 -6v-16q-44 5 -106 5q-71 0 -115 -5v16q66 3 67 21q3 95 3 263q0 179 -3 298q-9 28 -41 48t-59 20zM412 607q-8 22 -45 40.5t-62 18.5
q-29 0 -52.5 -19.5t-33.5 -44.5q-14 -33 -14 -116v-13.5v-12.5q0 -9 1 -27.5t1 -32.5h163v17q0 55 8 101.5t20 68.5q4 6 14 20zM370 378h-163l6 -333q0 -12 22 -20t45 -8q26 0 56 6.5t30 20.5z" />
    <glyph glyph-name="minus" unicode="&#x2212;" 
d="M46 267h429v-61h-429v61z" />
    <glyph glyph-name="infinity" unicode="&#x221e;" 
d="M371 348q-89 0 -89 -100q0 -53 26.5 -97.5t60.5 -44.5q35 0 52.5 31.5t17.5 83.5q0 68 -16 97.5t-52 29.5zM5 221q0 63 42 101.5t99 38.5q31 0 63.5 -24t47.5 -56q16 36 47.5 58t66.5 22q53 0 94.5 -35.5t41.5 -104.5q0 -53 -42 -90.5t-96 -37.5q-31 0 -63 24t-49 56
q-11 -32 -45 -56t-68 -24q-53 0 -96 37t-43 91zM146 348q-73 0 -72 -127q0 -53 18.5 -84t51.5 -31q84 0 84 92q0 68 -22.5 109t-59.5 41z" />
  </font>
</defs>
</svg>
