<?xml version="1.0" standalone="no"?>
<!DOCTYPE svg PUBLIC "-//W3C//DTD SVG 1.1//EN" "http://www.w3.org/Graphics/SVG/1.1/DTD/svg11.dtd" >
<svg xmlns="http://www.w3.org/2000/svg" xmlns:xlink="http://www.w3.org/1999/xlink" version="1.1">
<metadata>
Created by FontForge 20161013 at Wed Dec 22 03:13:07 2010
 By ,,,
Copyright (c) 2010 by Brian J. Bonislawsky DBA Astigmatic (AOETI). All rights reserved. Available under the Apache 2.0 licence.http://www.apache.org/licenses/LICENSE-2.0.html
</metadata>
<defs>
<font id="Crushed-Regular" horiz-adv-x="1002" >
  <font-face 
    font-family="Crushed"
    font-weight="400"
    font-stretch="condensed"
    units-per-em="2048"
    panose-1="2 14 5 6 0 0 0 2 0 3"
    ascent="1638"
    descent="-410"
    x-height="1374"
    cap-height="1374"
    bbox="-230 -483 2048 1820"
    underline-thickness="102"
    underline-position="-307"
    unicode-range="U+0020-FB02"
  />
<missing-glyph horiz-adv-x="400" 
 />
    <glyph glyph-name=".notdef" horiz-adv-x="400" 
 />
    <glyph glyph-name=".null" horiz-adv-x="0" 
 />
    <glyph glyph-name="nonmarkingreturn" horiz-adv-x="682" 
 />
    <glyph glyph-name="space" unicode=" " horiz-adv-x="400" 
 />
    <glyph glyph-name="exclam" unicode="!" horiz-adv-x="412" 
d="M272 339h-132v99q0 304 -14 535t-25 401h210q-11 -170 -25 -401t-14 -535v-99zM102 82q0 21 8 40t22 33.5t33 22.5t41 8q21 0 40 -8t33.5 -22.5t22.5 -33.5t8 -40q0 -22 -8 -41t-22.5 -33t-33.5 -22t-40 -8q-44 0 -74 30t-30 74z" />
    <glyph glyph-name="quotedbl" unicode="&#x22;" horiz-adv-x="500" 
d="M80 969l-20 405h143l-20 -405h-103zM317 969l-20 405h143l-20 -405h-103z" />
    <glyph glyph-name="numbersign" unicode="#" horiz-adv-x="952" 
d="M723 981l-66 -385h146v-113h-166l-50 -283h-121l50 283h-188l-50 -283h-121l50 283h-142v113h160l68 385h-144v112h162l52 281h121l-50 -281h186l52 281h121l-50 -281h144v-112h-164zM414 981l-66 -385h186l68 385h-188z" />
    <glyph glyph-name="dollar" unicode="$" horiz-adv-x="760" 
d="M332 33q-44 0 -80.5 3.5t-68.5 9.5t-60 14t-54 17v187q29 -27 58.5 -50t61 -40.5t66.5 -27.5t77 -10v506q-49 40 -97.5 81t-87.5 88t-63 101t-24 119q0 72 23.5 125t61.5 89.5t87 58t100 30.5v137h92v-130q59 -1 114.5 -10t106.5 -20v-183q-29 24 -56 44t-53.5 34
t-54 22.5t-57.5 9.5v-470q49 -40 98 -82.5t88.5 -91t64.5 -106t25 -127.5q0 -81 -24 -138.5t-63 -95.5t-88.5 -59.5t-100.5 -29.5v-135h-92v130zM538 348q0 63 -32 114.5t-82 99.5v-409q49 20 81.5 67.5t32.5 127.5zM220 1058q0 -62 31.5 -112.5t80.5 -97.5v376
q-50 -17 -81 -57.5t-31 -108.5z" />
    <glyph glyph-name="percent" unicode="%" horiz-adv-x="1080" 
d="M316 0h-109l547 1374h109zM488 1024q0 -82 -18 -147t-48 -110.5t-69.5 -69.5t-83.5 -24q-48 0 -88 24t-69 69.5t-45.5 110.5t-16.5 147t16.5 147t45.5 110t69 69t88 24t88 -24t69 -69t45.5 -110t16.5 -147zM367 1024q0 122 -23 191.5t-75 69.5q-53 0 -75.5 -69.5
t-22.5 -191.5t22.5 -192t75.5 -70q52 0 75 70t23 192zM1030 351q0 -82 -18 -147t-48 -110.5t-69.5 -69.5t-83.5 -24q-48 0 -88 24t-69 69.5t-45.5 110.5t-16.5 147t16.5 147t45.5 110t69 69t88 24t88 -24t69 -69t45.5 -110t16.5 -147zM909 351q0 122 -23 191.5t-75 69.5
q-53 0 -75.5 -69.5t-22.5 -191.5t22.5 -192t75.5 -70q52 0 75 70t23 192z" />
    <glyph glyph-name="ampersand" unicode="&#x26;" horiz-adv-x="971" 
d="M715 0q-33 34 -66 75q-50 -47 -111 -74.5t-135 -27.5q-75 0 -136 24t-103.5 70t-66 112t-23.5 150q0 66 14.5 121.5t38.5 104t56 90.5t67 81q-36 94 -57 184.5t-21 176.5q0 77 20 135.5t54.5 97.5t81.5 59t101 20q47 0 88.5 -16t72 -47.5t48.5 -78t18 -107.5
q0 -69 -22.5 -126.5t-57.5 -107.5t-79.5 -96.5t-87.5 -94.5q47 -104 112.5 -207.5t146.5 -208.5q18 42 31.5 87t22.5 89.5t14 86t7 77.5h165q-9 -48 -22.5 -104t-32.5 -114.5t-44 -116.5t-57 -110q43 -51 87.5 -102t91.5 -102h-216zM418 89q48 0 87.5 20t72.5 55
q-74 97 -144 206.5t-127 225.5q-34 -54 -55 -116t-21 -139q0 -54 12 -100t36 -79.5t59 -53t80 -19.5zM320 1096q0 -62 11 -124.5t31 -126.5q31 33 58.5 67t48 70.5t32.5 76.5t12 85q0 41 -7 69t-19 44.5t-27.5 23.5t-32.5 7q-47 0 -77 -47.5t-30 -144.5z" />
    <glyph glyph-name="quotesingle" unicode="'" horiz-adv-x="263" 
d="M80 969l-20 405h143l-20 -405h-103z" />
    <glyph glyph-name="parenleft" unicode="(" horiz-adv-x="582" 
d="M309 -121q-35 76 -68.5 163t-60.5 186t-43.5 211.5t-16.5 240.5q0 130 16.5 244t43.5 214t60.5 187t68.5 164h194q-50 -88 -92.5 -178t-73.5 -187.5t-48 -207t-17 -236.5q0 -125 17 -233t48 -205t73.5 -186t92.5 -177h-194z" />
    <glyph glyph-name="parenright" unicode=")" horiz-adv-x="582" 
d="M79 -121q50 88 92.5 177t73 186t48 205t17.5 233q0 127 -17.5 236.5t-48 207t-73 187.5t-92.5 178h194q34 -77 68 -164t61 -187t43.5 -214t16.5 -244q0 -128 -16.5 -240.5t-43.5 -211.5t-61 -186t-68 -163h-194z" />
    <glyph glyph-name="asterisk" unicode="*" horiz-adv-x="628" 
d="M71 1051q37 11 77 29.5t87 44.5q-45 24 -87 43t-78 30l57 100q26 -24 62.5 -50t83.5 -54q-1 55 -5 99.5t-12 80.5h115q-10 -37 -13.5 -81.5t-4.5 -99.5q45 28 81 53.5t63 51.5l61 -100q-38 -11 -78 -29t-85 -43q45 -24 85.5 -43.5t77.5 -29.5l-58 -102q-26 26 -63.5 52
t-83.5 54q1 -56 4.5 -100.5t13.5 -78.5h-115q8 34 12 78t5 99q-47 -29 -83 -53.5t-63 -50.5z" />
    <glyph glyph-name="plus" unicode="+" horiz-adv-x="1124" 
d="M623 624v-355h-122v355h-351v122h351v354h122v-354h351v-122h-351z" />
    <glyph glyph-name="comma" unicode="," horiz-adv-x="311" 
d="M50 88q0 42 30 70t74 28q21 0 40.5 -8.5t34.5 -24t23.5 -39t8.5 -53.5q0 -36 -11.5 -69t-30 -61.5t-41.5 -50.5t-46 -36l-53 55q25 11 43.5 34t18.5 58q-39 5 -65 30.5t-26 66.5z" />
    <glyph glyph-name="hyphen" unicode="-" horiz-adv-x="610" 
d="M120 616v141h370v-141h-370z" />
    <glyph glyph-name="period" unicode="." horiz-adv-x="308" 
d="M50 82q0 21 8 40t22 33.5t33 22.5t41 8q21 0 40 -8t33.5 -22.5t22.5 -33.5t8 -40q0 -22 -8 -41t-22.5 -33t-33.5 -22t-40 -8q-44 0 -74 30t-30 74z" />
    <glyph glyph-name="slash" unicode="/" horiz-adv-x="500" 
d="M153 -41h-120l314 1456h120z" />
    <glyph glyph-name="zero" unicode="0" horiz-adv-x="882" 
d="M816 686q0 -191 -28 -326t-77.5 -221t-118.5 -126t-150 -40t-150 40t-119.5 126t-78.5 221t-28 326q0 190 28 325t78.5 221t119.5 126.5t150 40.5t150 -40.5t118.5 -126.5t77.5 -221t28 -325zM646 686q-2 161 -16.5 274t-40.5 183.5t-63 102.5t-84 32q-48 0 -86 -31.5
t-64.5 -102t-41 -183t-14.5 -275.5q0 -164 14.5 -276.5t41 -183t64.5 -101.5t86 -31t86.5 31t65 101.5t40.5 183t12 276.5z" />
    <glyph glyph-name="one" unicode="1" horiz-adv-x="491" 
d="M33 1357l317 42q-6 -85 -9.5 -178t-5.5 -186t-3 -181.5t-1 -165.5t1 -162t3 -173.5t5 -178t8 -174.5h-187q6 85 9.5 174.5t5.5 178t3 173.5t1 162q0 78 -1.5 166t-3.5 169.5t-4.5 148.5t-3.5 102l-134 -12v95z" />
    <glyph glyph-name="two" unicode="2" horiz-adv-x="727" 
d="M30 0v136q86 94 154 174t119 151.5t87 136.5t58.5 129t32 129t8.5 137q-1 70 -16.5 123.5t-42.5 89.5t-64 54t-82 18q-54 0 -117 -27.5t-131 -93.5v166q35 24 71 38.5t71.5 23t69 11.5t63.5 3q73 0 136.5 -24t111 -74t75 -126.5t27.5 -181.5q0 -112 -34 -220t-96 -215.5
t-150 -215.5t-196 -219q106 0 200 1q40 0 81 1t78.5 2t68 2.5t50.5 3.5v-133h-633z" />
    <glyph glyph-name="three" unicode="3" horiz-adv-x="742" 
d="M418 746q53 -17 103 -48t89 -77t63 -107.5t24 -139.5q0 -99 -32 -174.5t-86.5 -125.5t-126.5 -75.5t-152 -25.5q-78 0 -144 18t-126 50v171q33 -27 63 -48.5t60.5 -37t64.5 -24t74 -8.5q51 0 94 17.5t74.5 52.5t49 87.5t17.5 123.5q0 70 -19.5 127t-59.5 97t-100 61.5
t-141 20.5v119q76 0 130.5 20.5t89.5 56.5t51.5 84.5t16.5 104.5q0 58 -16 98.5t-43.5 65.5t-64 36.5t-76.5 11.5q-54 0 -114 -23.5t-126 -80.5v165q71 32 134.5 46t137.5 14q65 0 126 -20t108 -60t75 -101.5t28 -143.5q0 -56 -19.5 -106.5t-52.5 -92.5t-78 -75t-96 -54z
" />
    <glyph glyph-name="four" unicode="4" horiz-adv-x="850" 
d="M682 1374q-6 -85 -9.5 -174t-5.5 -177t-3 -173t-1 -162v-98.5t1 -104.5h146v-123h-144q2 -91 5.5 -182.5t8.5 -179.5h-187q5 88 9 179.5t6 182.5h-468v119q37 82 76.5 163.5t78.5 159.5t76 151t70 136q77 149 152 283h189zM504 1152q-47 -88 -92.5 -180t-87.5 -179
t-79.5 -166t-67.5 -142h333q1 54 1.5 104.5t0.5 98.5q0 106 -1.5 224.5t-6.5 239.5z" />
    <glyph glyph-name="five" unicode="5" horiz-adv-x="767" 
d="M324 -27q-72 0 -143 18.5t-131 50.5v171q33 -27 63.5 -49t61 -37.5t62.5 -24t68 -8.5q49 0 95 18t81.5 57.5t57 102.5t21.5 154q0 85 -21.5 145t-57.5 98t-82.5 56t-97.5 18q-57 0 -101 -16.5t-77 -34.5l-43 27q1 24 3 60t3.5 79.5t2.5 93.5t1 102q0 77 -2.5 158.5
t-10.5 161.5h555v-123h-402q-2 -52 -3.5 -102t-1.5 -95t0.5 -83t1.5 -66q1 -33 3 -59q19 5 42.5 11.5t65.5 6.5q78 0 147 -28.5t120.5 -84t81.5 -136t30 -183.5q0 -111 -31 -197t-84.5 -144t-125 -88t-152.5 -30z" />
    <glyph glyph-name="six" unicode="6" horiz-adv-x="842" 
d="M513 1280q-61 0 -108.5 -31.5t-81 -91.5t-54.5 -147t-29 -198q42 21 93 34t98 13q77 0 142 -27t112.5 -81.5t74 -136.5t26.5 -192q0 -96 -23.5 -178.5t-68 -142.5t-107.5 -94t-142 -34q-87 0 -157 40t-119.5 123.5t-76 211t-26.5 303.5q0 166 31 303.5t89 236.5
t140.5 153.5t186.5 54.5q43 0 93.5 -7.5t110.5 -31.5v-166q-36 33 -86 59.5t-118 26.5zM235 658q1 -155 14 -263.5t38.5 -176t64.5 -98t92 -30.5q48 0 82 24.5t55 68t30.5 104t9.5 131.5q0 83 -14 145t-40 102.5t-62.5 60.5t-80.5 20q-54 0 -102.5 -19.5t-86.5 -47.5v-28v7z
" />
    <glyph glyph-name="seven" unicode="7" horiz-adv-x="687" 
d="M667 1334q-52 -111 -94 -227t-75 -230.5t-58 -224t-43 -206.5q-43 -229 -62 -446h-198q31 173 69 335t83.5 317t98 304t112.5 295q-76 -1 -158 -3q-70 -2 -155 -5.5t-167 -11.5v143h647v-40z" />
    <glyph glyph-name="eight" unicode="8" horiz-adv-x="843" 
d="M421 682q-95 0 -145 -78t-50 -220t50 -218t145 -76t145.5 76t50.5 218t-50.5 220t-145.5 78zM421 -27q-76 0 -142.5 26t-115.5 76.5t-77 125.5t-28 173q0 134 59.5 228.5t165.5 143.5q-95 50 -141.5 130t-46.5 177q0 78 25.5 141.5t70.5 109t105 70.5t129 25
q66 0 125 -25t103 -70.5t69.5 -109t25.5 -141.5q0 -97 -47 -177t-142 -130q106 -49 166 -143.5t60 -228.5q0 -98 -28.5 -173t-77.5 -125.5t-115.5 -76.5t-142.5 -26zM421 801q77 0 119.5 62.5t42.5 179.5t-40.5 179t-117.5 62t-121 -62t-44 -179t42 -179.5t119 -62.5z" />
    <glyph glyph-name="nine" unicode="9" horiz-adv-x="842" 
d="M329 92q61 0 108 31.5t81 91.5t54.5 147t28.5 197q-42 -20 -93 -33t-97 -13q-77 0 -142 27t-112.5 81.5t-74 136.5t-26.5 192q0 96 23.5 178.5t68 142.5t107.5 94t142 34q87 0 157 -40t119.5 -123.5t76 -211.5t26.5 -303q0 -166 -31 -303.5t-89 -236.5t-141 -153.5
t-186 -54.5q-43 0 -93.5 7.5t-110.5 31.5v166q36 -33 86 -59.5t118 -26.5zM418 626q54 0 102.5 19t86.5 48v-1q0 161 -12.5 273.5t-38 183t-65 102t-93.5 31.5q-48 0 -82 -24.5t-55 -68t-30.5 -104t-9.5 -131.5q0 -83 14 -145t40 -102.5t62.5 -60.5t80.5 -20z" />
    <glyph glyph-name="colon" unicode=":" horiz-adv-x="368" 
d="M80 740q0 21 8 40t22 33.5t33 22.5t41 8q21 0 40 -8t33.5 -22.5t22.5 -33.5t8 -40q0 -22 -8 -41t-22.5 -33t-33.5 -22t-40 -8q-44 0 -74 30t-30 74zM80 82q0 21 8 40t22 33.5t33 22.5t41 8q21 0 40 -8t33.5 -22.5t22.5 -33.5t8 -40q0 -22 -8 -41t-22.5 -33t-33.5 -22
t-40 -8q-44 0 -74 30t-30 74z" />
    <glyph glyph-name="semicolon" unicode=";" horiz-adv-x="371" 
d="M80 88q0 42 30 70t74 28q21 0 40.5 -8.5t34.5 -24t23.5 -39t8.5 -53.5q0 -36 -11.5 -69t-30 -61.5t-41.5 -50.5t-46 -36l-53 55q25 11 43.5 34t18.5 58q-39 5 -65 30.5t-26 66.5zM80 740q0 21 8 40t22 33.5t33 22.5t41 8q21 0 40 -8t33.5 -22.5t22.5 -33.5t8 -40
q0 -22 -8 -41t-22.5 -33t-33.5 -22t-40 -8q-44 0 -74 30t-30 74z" />
    <glyph glyph-name="less" unicode="&#x3c;" horiz-adv-x="1124" 
d="M150 634v102l824 370v-131l-652 -290l652 -290v-131z" />
    <glyph glyph-name="equal" unicode="=" horiz-adv-x="1124" 
d="M170 800v122h784v-122h-784zM170 448v122h784v-122h-784z" />
    <glyph glyph-name="greater" unicode="&#x3e;" horiz-adv-x="1124" 
d="M150 264v131l652 290l-652 290v131l824 -370v-102z" />
    <glyph glyph-name="question" unicode="?" horiz-adv-x="670" 
d="M620 1083q0 -66 -24.5 -123t-61 -107.5t-79 -94.5t-79 -85t-61 -79.5t-24.5 -76.5q0 -22 8.5 -39t20.5 -29t25 -20.5t23 -13.5l-105 -99q-50 36 -82.5 88t-32.5 107q0 57 22.5 108.5t56 100t73 94t73 91t56 91.5t22.5 95q0 48 -13.5 83.5t-36.5 59.5t-54.5 36t-67.5 12
q-66 0 -122 -35t-107 -92v190q49 22 115 38t130 16q70 0 129.5 -22.5t103 -63.5t68 -99.5t24.5 -130.5zM165 82q0 21 8 40t22 33.5t33 22.5t41 8q21 0 40 -8t33.5 -22.5t22.5 -33.5t8 -40q0 -22 -8 -41t-22.5 -33t-33.5 -22t-40 -8q-44 0 -74 30t-30 74z" />
    <glyph glyph-name="at" unicode="@" horiz-adv-x="1556" 
d="M927 428q-16 -20 -38.5 -39t-49.5 -34.5t-58 -25t-65 -9.5q-56 0 -103 18.5t-81.5 55.5t-54 91.5t-19.5 126.5q0 106 33 187.5t85.5 136.5t118 83.5t129.5 28.5q38 0 77 -13.5t72 -36.5l7 39h132l-58 -505q-4 -29 0 -49t13 -32.5t22.5 -18.5t28.5 -6q42 0 75.5 33
t57.5 85.5t36.5 119t12.5 134.5q0 119 -32 208.5t-92 149t-145.5 89.5t-192.5 30q-123 0 -225 -55.5t-175.5 -147t-114 -208.5t-40.5 -240q0 -125 33.5 -224t97 -167.5t155 -104.5t206.5 -36q92 0 182 23t177 73l50 -99q-94 -54 -200 -85t-219 -31q-142 0 -258 44.5
t-198.5 129t-128 207.5t-45.5 280q0 104 25 201.5t71 182.5t111 155.5t144.5 120.5t171.5 78t192 28q123 0 227.5 -41t181 -118t119.5 -188t43 -251q0 -90 -23.5 -176t-66.5 -153t-103.5 -108t-134.5 -41q-19 0 -42 4.5t-46 16t-43.5 31.5t-34.5 52zM742 410q94 0 174 124
l42 356q-34 36 -65.5 54t-77.5 18q-36 0 -73.5 -24t-67.5 -68.5t-49 -108.5t-19 -144q0 -53 11 -92t29.5 -64.5t43 -38t52.5 -12.5z" />
    <glyph glyph-name="A" unicode="A" horiz-adv-x="835" 
d="M639 0q-14 96 -29 190l-30 188h-325q-16 -94 -30.5 -188t-28.5 -190h-190q32 121 63 249.5t59 256t53.5 251t47 236t39.5 209.5t31 172h237q13 -75 31 -172t39.5 -209.5t47 -236t53.5 -251t59 -256t63 -249.5h-190zM410 1172q-41 -170 -74 -338t-62 -339h286
q-29 171 -62.5 339t-73.5 338h-14z" />
    <glyph glyph-name="B" unicode="B" horiz-adv-x="846" 
d="M408 1374q80 0 145.5 -19.5t112.5 -60t72.5 -104.5t25.5 -152q0 -71 -15 -124t-40.5 -90t-58.5 -59.5t-70 -31.5q44 -8 85.5 -32.5t73.5 -68t51 -106.5t19 -147q0 -88 -19.5 -158t-62 -119t-110 -75.5t-164.5 -26.5h-353q6 85 9.5 174.5t5.5 178t3 173.5t1 162t-1 162
t-3 173t-5.5 177t-9.5 174h308zM270 670q0 -127 2.5 -269.5t8.5 -285.5h163q45 0 81 14.5t61 48.5t38 88.5t13 134.5q0 78 -14.5 129.5t-41 82.5t-63.5 44t-82 13h-166zM282 1260q-6 -121 -8.5 -242.5t-3.5 -233.5h150q49 0 82.5 13t53.5 40.5t29 70.5t9 102q0 57 -8 103.5
t-28 79t-53.5 50t-84.5 17.5h-138z" />
    <glyph glyph-name="C" unicode="C" horiz-adv-x="852" 
d="M242 686q0 -144 23 -254.5t65.5 -185.5t102 -113.5t132.5 -38.5q44 0 78 11t61.5 27.5t51.5 37t47 39.5v-201q-56 -14 -112.5 -22.5t-125.5 -8.5q-107 0 -198 43t-157.5 130.5t-104 221t-37.5 314.5t39.5 314.5t107 221t158 130.5t192.5 43q69 0 125.5 -8.5t112.5 -22.5
v-201q-23 19 -47 39.5t-51.5 37t-61.5 27.5t-78 11q-73 0 -132.5 -38.5t-102 -113.5t-65.5 -185.5t-23 -254.5z" />
    <glyph glyph-name="D" unicode="D" horiz-adv-x="964" 
d="M413 1374q107 0 196 -33t152.5 -112.5t99 -211.5t35.5 -329q0 -198 -35.5 -330.5t-99.5 -212t-153 -112.5t-197 -33h-311q6 85 9.5 174.5t5.5 178t3 173.5t1 162t-1 162t-3 173t-5.5 177t-9.5 174h313zM282 1260q-7 -148 -9.5 -295.5t-2.5 -276.5t2 -277.5t9 -295.5h134
q43 0 82.5 9.5t73 33.5t61.5 65.5t47.5 105t30 152t10.5 207.5t-10.5 207.5t-30 152t-47.5 104.5t-61.5 65t-73 33.5t-82.5 9.5h-133z" />
    <glyph glyph-name="E" unicode="E" horiz-adv-x="764" 
d="M680 1374v-117h-398q-6 -115 -8.5 -229.5t-3.5 -222.5h381v-117h-381q0 -129 2 -276.5t9 -294.5h405v-117h-586q6 85 9.5 174.5t5.5 178t3 173.5t1 162t-1 162t-3 173t-5.5 177t-9.5 174h580z" />
    <glyph glyph-name="F" unicode="F" horiz-adv-x="702" 
d="M659 1374v-117h-377q-6 -118 -8.5 -237t-3.5 -229h361v-117h-361q0 -76 1 -159.5t3 -170t5 -174t8 -170.5h-187q6 85 9.5 174.5t5.5 178t3 173.5t1 162t-1 162t-3 173t-5.5 177t-9.5 174h559z" />
    <glyph glyph-name="G" unicode="G" horiz-adv-x="946" 
d="M494 676h364q-4 -82 -5.5 -161t-1.5 -151t0.5 -131.5t2.5 -102.5q2 -51 4 -91q-51 -26 -124 -44t-177 -18t-193 43t-155 130.5t-103.5 221t-37.5 314.5t39.5 314.5t107.5 221t158.5 130.5t192.5 43q42 0 76 -3.5t63.5 -9.5t55.5 -15t51 -19v-202q-65 73 -122.5 102.5
t-124.5 29.5q-77 0 -137 -42.5t-101.5 -120.5t-63 -186.5t-21.5 -240.5q0 -128 20 -236.5t60 -188t100.5 -124.5t141.5 -45q35 0 61.5 5.5t52.5 19.5q1 22 2 51q1 25 2 60.5t1 82.5q0 51 -1.5 113t-5.5 134h-182v116z" />
    <glyph glyph-name="H" unicode="H" horiz-adv-x="953" 
d="M852 1374q-5 -85 -8.5 -174t-5.5 -177t-3 -173t-1 -162t1 -162t2.5 -173.5t4.5 -178t8 -174.5h-186q5 85 8.5 174.5t5.5 178t3 173.5t1 162h-412q0 -77 1 -162t3 -173.5t5 -178t8 -174.5h-187q6 85 9.5 174.5t5.5 178t3 173.5t1 162t-1 162t-3 173t-5.5 177t-9.5 174h189
q-10 -140 -13.5 -286.5t-5.5 -282.5h411q-1 136 -5 282.5t-12 286.5h188z" />
    <glyph glyph-name="I" unicode="I" horiz-adv-x="401" 
d="M295 1374q-6 -85 -9.5 -174t-5.5 -177t-3 -173t-1 -162t1 -162t3 -173.5t5 -178t8 -174.5h-187q6 85 9.5 174.5t5.5 178t3 173.5t1 162t-1 162t-3 173t-5.5 177t-9.5 174h189z" />
    <glyph glyph-name="J" unicode="J" horiz-adv-x="571" 
d="M20 121q10 -3 38 -11t71 -8q31 0 59 9t50 33t38 66t24 108q8 64 8.5 168t0.5 244q0 152 -3.5 316t-14.5 328h188q-5 -82 -8 -161t-5.5 -151t-3.5 -134.5t-1 -112.5q0 -56 0.5 -116t1.5 -114t1.5 -96.5t0.5 -63.5q0 -107 -21 -191t-64 -142t-109.5 -88t-157.5 -30
q-29 0 -56.5 4t-36.5 6v137z" />
    <glyph glyph-name="K" unicode="K" horiz-adv-x="834" 
d="M289 1374q-9 -139 -13 -284t-6 -280q36 53 75 117t80.5 136t83.5 150.5t83 160.5h208q-44 -60 -95 -133t-103 -150t-103 -155t-96 -147q42 -98 90 -197.5t103.5 -198.5t119.5 -197.5t138 -195.5h-211q-25 38 -54 88.5t-59.5 108t-61.5 119.5t-60.5 122.5t-55.5 117
t-47 103.5l-35 -59q0 -69 1.5 -144.5t3.5 -153.5t5 -155t7 -147h-187q6 85 9.5 174.5t5.5 178t3 173.5t1 162t-1 162t-3 173t-5.5 177t-9.5 174h189z" />
    <glyph glyph-name="L" unicode="L" horiz-adv-x="696" 
d="M289 1374q-6 -85 -9.5 -174t-5.5 -177t-3 -173t-1 -162q0 -129 2 -276.5t9 -294.5h405v-117h-586q6 85 9.5 174.5t5.5 178t3 173.5t1 162t-1 162t-3 173t-5.5 177t-9.5 174h189z" />
    <glyph glyph-name="M" unicode="M" horiz-adv-x="1189" 
d="M524 0q-24 124 -50.5 260t-57 276t-65 280t-73.5 272h-10q-2 -43 -2.5 -97t-0.5 -108.5t0.5 -105.5t0.5 -89q0 -77 1 -162t3 -173.5t5 -178t8 -174.5h-183q6 85 9.5 174.5t5.5 178t3 173.5t1 162t-1 162t-3 173t-5.5 177t-9.5 174h237q59 -285 119.5 -545.5t131.5 -493.5
h13q71 233 131.5 493.5t119.5 545.5h237q-6 -85 -9.5 -174t-5.5 -177t-3 -173t-1 -162t1 -162t3 -173.5t5.5 -178t9.5 -174.5h-183q5 85 8 174.5t5 178t3 173.5t1 162v89v105.5t-0.5 108.5t-1.5 97h-10q-39 -132 -73.5 -272t-65 -280t-57 -276t-50.5 -260h-141z" />
    <glyph glyph-name="N" unicode="N" horiz-adv-x="951" 
d="M851 1374q-6 -85 -9.5 -174t-5.5 -177t-3 -173t-1 -162t1 -162t3 -173.5t5 -178t8 -174.5h-185q-51 147 -100 280t-97.5 257.5t-96.5 243t-96 235.5h-7q-2 -87 -1.5 -169.5t0.5 -158.5q0 -77 1 -162t3 -173.5t5 -178t8 -174.5h-183q6 85 9.5 174.5t5.5 178t3 173.5t1 162
t-1 162t-3 173t-5.5 177t-9.5 174h187q101 -294 198 -555t194 -495h7q1 44 1 92t-0.5 95.5t-1 92.5t-0.5 84q0 77 -1 162t-3 173t-5.5 177t-9.5 174h185z" />
    <glyph glyph-name="O" unicode="O" 
d="M934 686q0 -185 -33 -319.5t-91.5 -222t-137.5 -129.5t-170 -42q-92 0 -171 42t-137.5 129.5t-92 222t-33.5 319.5q0 184 33.5 318.5t92 222.5t137.5 130t171 42q91 0 170 -42t137.5 -130t91.5 -222.5t33 -318.5zM762 686q0 154 -20 266t-55 184.5t-82.5 107t-102.5 34.5
q-56 0 -103.5 -34.5t-83 -107t-55.5 -184.5t-20 -266q0 -155 20 -267t55.5 -184t83 -106.5t103.5 -34.5q55 0 102.5 34.5t82.5 106.5t55 184t20 267z" />
    <glyph glyph-name="P" unicode="P" horiz-adv-x="838" 
d="M434 1374q84 0 150 -28.5t111.5 -83.5t69 -134t23.5 -179q0 -43 -8 -91.5t-26 -95.5t-46 -90.5t-68.5 -76.5t-94 -52.5t-121.5 -19.5h-154q2 -128 5.5 -261.5t11.5 -261.5h-187q6 85 9.5 174.5t5.5 178t3 173.5t1 162t-1 162t-3 173t-5.5 177t-9.5 174h334zM282 1262
q-7 -148 -9.5 -296t-2.5 -278v-54h154q90 0 140 82.5t50 232.5q0 153 -47 233t-143 80h-142z" />
    <glyph glyph-name="Q" unicode="Q" 
d="M934 686q0 -220 -46 -367.5t-125 -232.5q38 -17 72.5 -28t60.5 -19q31 -9 58 -14l-80 -140q-51 17 -105 49.5t-111 73.5q-73 -35 -156 -35q-92 0 -171 42t-137.5 129.5t-92 222t-33.5 319.5q0 184 33.5 318.5t92 222.5t137.5 130t171 42q91 0 170 -42t137.5 -130
t91.5 -222.5t33 -318.5zM762 686q0 154 -20 266t-55 184.5t-82.5 107t-102.5 34.5q-56 0 -103.5 -34.5t-83 -107t-55.5 -184.5t-20 -266q0 -155 20 -267t55.5 -184t83 -106.5t103.5 -34.5q55 0 102.5 34.5t82.5 106.5t55 184t20 267z" />
    <glyph glyph-name="R" unicode="R" horiz-adv-x="846" 
d="M426 1374q169 0 261.5 -99t92.5 -300q0 -130 -45 -214.5t-133 -129.5q22 -86 55 -187q29 -87 72.5 -201t106.5 -243h-211q-45 149 -74.5 259.5t-46.5 185.5q-20 87 -31 149h-203q0 -70 1.5 -144.5t3.5 -150t5 -151.5t7 -148h-187q6 85 9.5 174.5t5.5 178t3 173.5t1 162
t-1 162t-3 173t-5.5 177t-9.5 174h326zM282 1262q-7 -143 -9.5 -286.5t-2.5 -270.5h146q45 0 80 14t59.5 46t37.5 83.5t13 126.5q0 152 -47.5 219.5t-142.5 67.5h-134z" />
    <glyph glyph-name="S" unicode="S" horiz-adv-x="765" 
d="M332 86q40 0 78.5 12.5t68.5 40.5t48 71.5t18 106.5q0 54 -21.5 100t-56.5 88t-80 81.5t-92 79.5t-92 82.5t-80 90t-56.5 102.5t-21.5 120q0 95 35 160t89 104.5t119.5 56.5t127.5 17q65 0 125.5 -10.5t116.5 -22.5v-199q-32 27 -60.5 49t-57 37.5t-58.5 24t-64 8.5
q-42 0 -79.5 -11.5t-65 -35.5t-44 -61t-16.5 -88q0 -71 37 -129.5t93 -111.5t121 -106t121 -114t93 -133.5t37 -165.5q0 -70 -16 -123.5t-43.5 -93t-63.5 -66.5t-77 -43.5t-84.5 -23.5t-84.5 -7q-49 0 -90 3.5t-76.5 10t-66 15t-59.5 18.5v205q31 -29 62 -54.5t64.5 -44.5
t70.5 -29.5t81 -10.5z" />
    <glyph glyph-name="T" unicode="T" horiz-adv-x="715" 
d="M15 1374h685v-117h-255q-8 -147 -10 -294t-2 -275q0 -77 1 -162t3 -173.5t5 -178t8 -174.5h-187q6 85 9.5 174.5t5.5 178t3 173.5t1 162q0 128 -2.5 275t-9.5 294h-255v117z" />
    <glyph glyph-name="U" unicode="U" horiz-adv-x="960" 
d="M480 95q56 0 97 22t68 63t40.5 100.5t13.5 133.5v323q0 152 -3.5 312.5t-14.5 324.5h188q-9 -165 -13.5 -326t-4.5 -311v-323q0 -104 -23 -186t-69 -139t-115.5 -87.5t-163.5 -30.5t-163.5 30.5t-115.5 87.5t-69 139t-23 186v323q0 150 -4.5 311t-13.5 326h188
q-11 -164 -14.5 -324.5t-3.5 -312.5v-323q0 -74 13 -133.5t40 -100.5t68.5 -63t97.5 -22z" />
    <glyph glyph-name="V" unicode="V" horiz-adv-x="835" 
d="M424 202q69 291 119.5 581.5t95.5 590.5h190q-32 -122 -63 -250t-59 -255.5t-53.5 -251t-47 -236t-39.5 -209.5t-31 -172h-237q-13 75 -31 172t-39.5 209.5t-47 236t-53.5 251t-59 255.5t-63 250h190q45 -300 95 -590.5t119 -581.5h14z" />
    <glyph glyph-name="W" unicode="W" horiz-adv-x="1296" 
d="M641 1123q-12 -88 -25.5 -191.5t-27.5 -211t-28 -214t-26 -202t-21.5 -174t-14.5 -130.5h-237q-11 75 -25.5 172t-32 209.5t-38.5 236t-44.5 251t-49.5 255.5t-53 250h193q38 -300 77.5 -590.5t86.5 -581.5h14q23 145 43.5 290t39 291.5t36.5 294t37 296.5h206
q37 -299 72.5 -591t82.5 -581h14q47 291 87 581.5t78 590.5h193q-27 -122 -53 -250t-49.5 -255.5t-44.5 -251t-38.5 -236t-32.5 -209.5t-25 -172h-237q-5 52 -14.5 130.5t-21.5 174t-26 202t-28 214t-28 211t-25 191.5h-14z" />
    <glyph glyph-name="X" unicode="X" horiz-adv-x="807" 
d="M206 1374q47 -143 95.5 -272t101.5 -256q54 127 102.5 256t95.5 272h186q-83 -173 -160.5 -343t-153.5 -346q71 -161 151.5 -328.5t172.5 -356.5h-185q-54 138 -105.5 266.5t-103.5 253.5q-52 -125 -103.5 -253.5t-104.5 -266.5h-185q91 189 171.5 356.5t152.5 328.5
q-76 176 -154 346t-160 343h186z" />
    <glyph glyph-name="Y" unicode="Y" horiz-adv-x="744" 
d="M744 1374q-35 -89 -70.5 -180.5t-72.5 -190t-74.5 -205t-77.5 -223.5q1 -148 5 -289.5t12 -285.5h-187q9 144 13.5 285.5t5.5 289.5q-40 117 -78 223.5t-75.5 205t-73.5 190t-71 180.5h186q43 -173 88.5 -325t94.5 -291h4q49 139 95 291t90 325h186v0z" />
    <glyph glyph-name="Z" unicode="Z" horiz-adv-x="751" 
d="M40 0v10q121 303 232.5 620t204.5 627h-412v117h640v-10q-121 -303 -235 -620t-207 -627h448v-117h-671z" />
    <glyph glyph-name="bracketleft" unicode="[" horiz-adv-x="606" 
d="M131 -121q4 57 6.5 124.5t5 140.5t4 148t2 146t1 135t0.5 115t-0.5 114.5t-1 133.5t-2 144t-4 146t-5 139t-6.5 124h425v-107h-251v-1396h251v-107h-425z" />
    <glyph glyph-name="backslash" unicode="\" horiz-adv-x="500" 
d="M33 1415h120l314 -1456h-120z" />
    <glyph glyph-name="bracketright" unicode="]" horiz-adv-x="606" 
d="M50 -121v107h251v1396h-251v107h425q-4 -57 -6.5 -124t-5 -139t-4 -146t-2 -144t-1 -133.5t-0.5 -114.5t0.5 -115t1 -135t2 -146t4 -148t5 -140.5t6.5 -124.5h-425z" />
    <glyph glyph-name="asciicircum" unicode="^" horiz-adv-x="750" 
d="M509 778l-133 434l-133 -434h-133l217 596h98l215 -596h-131z" />
    <glyph glyph-name="underscore" unicode="_" horiz-adv-x="750" 
d="M0 -250v155h750v-155h-750z" />
    <glyph glyph-name="grave" unicode="`" horiz-adv-x="541" 
d="M242 1139l-203 276h178l131 -276h-106z" />
    <glyph glyph-name="a" unicode="a" horiz-adv-x="889" 
d="M608 0l5 121q-24 -27 -49 -53.5t-56 -47t-70.5 -33t-93.5 -12.5q-62 0 -115.5 25.5t-93 74.5t-62.5 121.5t-23 167.5q0 121 37 207t109.5 146t180 97t248.5 60q0 121 -12.5 200t-36.5 125.5t-59.5 64.5t-81.5 18q-40 0 -80 -12.5t-79.5 -33.5t-79 -48.5t-77.5 -57.5v194
q42 16 80 29.5t76.5 23.5t77.5 16t83 6q88 0 153.5 -24t109 -76t65 -134t21.5 -197q0 -11 -0.5 -37t-1 -61t-1 -75t-1 -79t-1 -73.5t-0.5 -57.5q0 -53 1 -119.5t3.5 -141.5t6 -157t8.5 -167h-191zM620 273q3 102 5 218.5t2 266.5q-127 -15 -205 -49t-121 -83.5t-58 -112.5
t-15 -137q0 -63 11.5 -114t33.5 -86.5t52 -54.5t68 -19q43 0 75.5 15.5t59 40t48.5 55t44 60.5z" />
    <glyph glyph-name="b" unicode="b" horiz-adv-x="876" 
d="M438 1374q80 0 145.5 -19.5t112.5 -60t72.5 -104.5t25.5 -152q0 -71 -15 -124t-40.5 -90t-58.5 -59.5t-70 -31.5q44 -8 85.5 -32.5t73.5 -68t51 -106.5t19 -147q0 -88 -19.5 -158t-62 -119t-110 -75.5t-164.5 -26.5h-383q6 85 9.5 174.5t5.5 178t3 173.5t1 162t-1 162
t-3 173t-5.5 177t-9.5 174h338zM270 670q0 -127 2.5 -269.5t8.5 -285.5h193q45 0 81 14.5t61 48.5t38 88.5t13 134.5q0 78 -14.5 129.5t-41 82.5t-63.5 44t-82 13h-196zM282 1260q-6 -121 -8.5 -242.5t-3.5 -233.5h180q49 0 82.5 13t53.5 40.5t29 70.5t9 102q0 57 -8 103.5
t-28 79t-53.5 50t-84.5 17.5h-168z" />
    <glyph glyph-name="c" unicode="c" horiz-adv-x="852" 
d="M242 686q0 -144 23 -254.5t65.5 -185.5t102 -113.5t132.5 -38.5q44 0 78 11t61.5 27.5t51.5 37t47 39.5v-201q-56 -14 -112.5 -22.5t-125.5 -8.5q-107 0 -198 43t-157.5 130.5t-104 221t-37.5 314.5t39.5 314.5t107 221t158 130.5t192.5 43q69 0 125.5 -8.5t112.5 -22.5
v-201q-23 19 -47 39.5t-51.5 37t-61.5 27.5t-78 11q-73 0 -132.5 -38.5t-102 -113.5t-65.5 -185.5t-23 -254.5z" />
    <glyph glyph-name="d" unicode="d" horiz-adv-x="964" 
d="M413 1374q107 0 196 -33t152.5 -112.5t99 -211.5t35.5 -329q0 -198 -35.5 -330.5t-99.5 -212t-153 -112.5t-197 -33h-311q6 85 9.5 174.5t5.5 178t3 173.5t1 162t-1 162t-3 173t-5.5 177t-9.5 174h313zM282 1260q-7 -148 -9.5 -295.5t-2.5 -276.5t2 -277.5t9 -295.5h134
q43 0 82.5 9.5t73 33.5t61.5 65.5t47.5 105t30 152t10.5 207.5t-10.5 207.5t-30 152t-47.5 104.5t-61.5 65t-73 33.5t-82.5 9.5h-133z" />
    <glyph glyph-name="e" unicode="e" horiz-adv-x="910" 
d="M547 90q44 0 79.5 11t65.5 27.5t55 37t48 39.5v-197q-26 -5 -52.5 -11t-59 -11t-72.5 -9t-92 -4q-105 0 -188.5 48.5t-142 140t-89.5 223t-31 297.5q0 160 26 292.5t76.5 226.5t125 146t172.5 52q101 0 173.5 -46.5t119 -135t68 -217.5t21.5 -295v-37h-604
q6 -159 25.5 -269t55.5 -179t90.5 -99.5t129.5 -30.5zM678 784q-2 58 -6 118t-12.5 116t-23 105t-37.5 85t-56 57t-78 21q-60 0 -99.5 -44t-64 -115t-36.5 -161t-17 -182h430z" />
    <glyph glyph-name="f" unicode="f" horiz-adv-x="732" 
d="M712 1219q-13 13 -34.5 23.5t-47 18t-52 11t-48.5 3.5q-64 0 -112.5 -22t-81 -63.5t-49 -100.5t-16.5 -133v-165h390v-117h-390v-37q0 -152 3.5 -312.5t14.5 -324.5h-188q9 165 13.5 326t4.5 311v319q0 104 26 186t78 139t129 87.5t178 30.5q20 0 45 -1.5t50 -4t48 -6.5
t39 -10v-158z" />
    <glyph glyph-name="g" unicode="g" horiz-adv-x="946" 
d="M494 676h364q-4 -82 -5.5 -161t-1.5 -151t0.5 -131.5t2.5 -102.5q2 -51 4 -91q-51 -26 -124 -44t-177 -18t-193 43t-155 130.5t-103.5 221t-37.5 314.5t39.5 314.5t107.5 221t158.5 130.5t192.5 43q42 0 76 -3.5t63.5 -9.5t55.5 -15t51 -19v-202q-65 73 -122.5 102.5
t-124.5 29.5q-77 0 -137 -42.5t-101.5 -120.5t-63 -186.5t-21.5 -240.5q0 -128 20 -236.5t60 -188t100.5 -124.5t141.5 -45q35 0 61.5 5.5t52.5 19.5q1 22 2 51q1 25 2 60.5t1 82.5q0 51 -1.5 113t-5.5 134h-182v116z" />
    <glyph glyph-name="h" unicode="h" horiz-adv-x="953" 
d="M852 1374q-5 -85 -8.5 -174t-5.5 -177t-3 -173t-1 -162t1 -162t2.5 -173.5t4.5 -178t8 -174.5h-186q5 85 8.5 174.5t5.5 178t3 173.5t1 162h-412q0 -77 1 -162t3 -173.5t5 -178t8 -174.5h-187q6 85 9.5 174.5t5.5 178t3 173.5t1 162t-1 162t-3 173t-5.5 177t-9.5 174h189
q-10 -140 -13.5 -286.5t-5.5 -282.5h411q-1 136 -5 282.5t-12 286.5h188z" />
    <glyph glyph-name="i" unicode="i" horiz-adv-x="401" 
d="M295 1374q-6 -85 -9.5 -174t-5.5 -177t-3 -173t-1 -162t1 -162t3 -173.5t5 -178t8 -174.5h-187q6 85 9.5 174.5t5.5 178t3 173.5t1 162t-1 162t-3 173t-5.5 177t-9.5 174h189z" />
    <glyph glyph-name="j" unicode="j" horiz-adv-x="571" 
d="M20 121q10 -3 38 -11t71 -8q31 0 59 9t50 33t38 66t24 108q8 64 8.5 168t0.5 244q0 152 -3.5 316t-14.5 328h188q-5 -82 -8 -161t-5.5 -151t-3.5 -134.5t-1 -112.5q0 -56 0.5 -116t1.5 -114t1.5 -96.5t0.5 -63.5q0 -107 -21 -191t-64 -142t-109.5 -88t-157.5 -30
q-29 0 -56.5 4t-36.5 6v137z" />
    <glyph glyph-name="k" unicode="k" horiz-adv-x="834" 
d="M289 1374q-9 -139 -13 -284t-6 -280q36 53 75 117t80.5 136t83.5 150.5t83 160.5h208q-44 -60 -95 -133t-103 -150t-103 -155t-96 -147q42 -98 90 -197.5t103.5 -198.5t119.5 -197.5t138 -195.5h-211q-25 38 -54 88.5t-59.5 108t-61.5 119.5t-60.5 122.5t-55.5 117
t-47 103.5l-35 -59q0 -69 1.5 -144.5t3.5 -153.5t5 -155t7 -147h-187q6 85 9.5 174.5t5.5 178t3 173.5t1 162t-1 162t-3 173t-5.5 177t-9.5 174h189z" />
    <glyph glyph-name="l" unicode="l" horiz-adv-x="696" 
d="M289 1374q-6 -85 -9.5 -174t-5.5 -177t-3 -173t-1 -162q0 -129 2 -276.5t9 -294.5h405v-117h-586q6 85 9.5 174.5t5.5 178t3 173.5t1 162t-1 162t-3 173t-5.5 177t-9.5 174h189z" />
    <glyph glyph-name="m" unicode="m" horiz-adv-x="1382" 
d="M619 658q-2 156 -6.5 272.5t-19 193t-42.5 114.5t-77 38q-18 0 -42.5 -9t-51 -24.5t-53.5 -37t-52 -45.5q-5 -121 -7 -240.5t-2 -244.5q0 -93 1 -177t3 -165t6 -162.5t9 -170.5h-185q5 89 8.5 170.5t6 162.5t3.5 165t1 177t-1 180.5t-3.5 173t-6 171t-8.5 174.5h186
l-5 -84q54 48 116.5 78.5t122.5 30.5q75 0 129.5 -38.5t84.5 -115.5q30 32 64.5 60t71 49t75 33t75.5 12q119 0 184.5 -94.5t65.5 -281.5q0 -46 -0.5 -98.5t-1.5 -103t-1.5 -93.5t-0.5 -70q0 -93 1 -174t3 -159t5.5 -157t8.5 -168h-184q5 89 9 168t7 157t3.5 159t-0.5 174
q-2 156 -6.5 272.5t-19 193t-42.5 114.5t-77 38q-20 0 -46 -10.5t-54.5 -28t-58 -41.5t-54.5 -51q9 -56 9 -122q0 -46 -0.5 -98.5t-1.5 -103t-1.5 -93.5t-0.5 -70q0 -93 1 -174t3 -159t5.5 -157t8.5 -168h-184q5 89 9 168t7 157t3.5 159t-0.5 174z" />
    <glyph glyph-name="n" unicode="n" horiz-adv-x="948" 
d="M685 658q-2 156 -6.5 272.5t-19 193t-42.5 114.5t-77 38q-26 0 -62.5 -17t-74.5 -45.5t-73 -64.5t-58 -73q-6 -198 -6 -401q0 -93 1 -177t3 -165t6 -162.5t9 -170.5h-185q5 89 8.5 170.5t6 162.5t3.5 165t1 177t-1 180.5t-3.5 173t-6 171t-8.5 174.5h186l-9 -155
q30 36 67 68.5t77 57.5t82 39.5t83 14.5q119 0 184.5 -94.5t65.5 -281.5q0 -46 -0.5 -98.5t-1.5 -103t-1.5 -93.5t-0.5 -70q0 -93 1 -174t3 -159t5.5 -157t8.5 -168h-184q5 89 9 168t7 157t3.5 159t-0.5 174z" />
    <glyph glyph-name="o" unicode="o" 
d="M934 686q0 -185 -33 -319.5t-91.5 -222t-137.5 -129.5t-170 -42q-92 0 -171 42t-137.5 129.5t-92 222t-33.5 319.5q0 184 33.5 318.5t92 222.5t137.5 130t171 42q91 0 170 -42t137.5 -130t91.5 -222.5t33 -318.5zM762 686q0 154 -20 266t-55 184.5t-82.5 107t-102.5 34.5
q-56 0 -103.5 -34.5t-83 -107t-55.5 -184.5t-20 -266q0 -155 20 -267t55.5 -184t83 -106.5t103.5 -34.5q55 0 102.5 34.5t82.5 106.5t55 184t20 267z" />
    <glyph glyph-name="p" unicode="p" horiz-adv-x="838" 
d="M434 1374q84 0 150 -28.5t111.5 -83.5t69 -134t23.5 -179q0 -43 -8 -91.5t-26 -95.5t-46 -90.5t-68.5 -76.5t-94 -52.5t-121.5 -19.5h-154q2 -128 5.5 -261.5t11.5 -261.5h-187q6 85 9.5 174.5t5.5 178t3 173.5t1 162t-1 162t-3 173t-5.5 177t-9.5 174h334zM282 1262
q-7 -148 -9.5 -296t-2.5 -278v-54h154q90 0 140 82.5t50 232.5q0 153 -47 233t-143 80h-142z" />
    <glyph glyph-name="q" unicode="q" 
d="M934 686q0 -220 -46 -367.5t-125 -232.5q38 -17 72.5 -28t60.5 -19q31 -9 58 -14l-80 -140q-51 17 -105 49.5t-111 73.5q-73 -35 -156 -35q-92 0 -171 42t-137.5 129.5t-92 222t-33.5 319.5q0 184 33.5 318.5t92 222.5t137.5 130t171 42q91 0 170 -42t137.5 -130
t91.5 -222.5t33 -318.5zM762 686q0 154 -20 266t-55 184.5t-82.5 107t-102.5 34.5q-56 0 -103.5 -34.5t-83 -107t-55.5 -184.5t-20 -266q0 -155 20 -267t55.5 -184t83 -106.5t103.5 -34.5q55 0 102.5 34.5t82.5 106.5t55 184t20 267z" />
    <glyph glyph-name="r" unicode="r" horiz-adv-x="666" 
d="M646 1215q-132 0 -230 -37t-144 -112q-6 -194 -6 -391q0 -93 1 -177t3 -165t6 -162.5t9 -170.5h-185q5 89 8.5 170.5t6 162.5t3.5 165t1 177t-1 180.5t-3.5 173t-6 171t-8.5 174.5h186q-3 -47 -5.5 -84t-4.5 -83q32 37 78.5 72t97.5 61.5t102 42.5t92 16v-184z" />
    <glyph glyph-name="s" unicode="s" horiz-adv-x="765" 
d="M332 86q40 0 78.5 12.5t68.5 40.5t48 71.5t18 106.5q0 54 -21.5 100t-56.5 88t-80 81.5t-92 79.5t-92 82.5t-80 90t-56.5 102.5t-21.5 120q0 95 35 160t89 104.5t119.5 56.5t127.5 17q65 0 125.5 -10.5t116.5 -22.5v-199q-32 27 -60.5 49t-57 37.5t-58.5 24t-64 8.5
q-42 0 -79.5 -11.5t-65 -35.5t-44 -61t-16.5 -88q0 -71 37 -129.5t93 -111.5t121 -106t121 -114t93 -133.5t37 -165.5q0 -70 -16 -123.5t-43.5 -93t-63.5 -66.5t-77 -43.5t-84.5 -23.5t-84.5 -7q-49 0 -90 3.5t-76.5 10t-66 15t-59.5 18.5v205q31 -29 62 -54.5t64.5 -44.5
t70.5 -29.5t81 -10.5z" />
    <glyph glyph-name="t" unicode="t" horiz-adv-x="715" 
d="M15 1374h685v-117h-255q-8 -147 -10 -294t-2 -275q0 -77 1 -162t3 -173.5t5 -178t8 -174.5h-187q6 85 9.5 174.5t5.5 178t3 173.5t1 162q0 128 -2.5 275t-9.5 294h-255v117z" />
    <glyph glyph-name="u" unicode="u" horiz-adv-x="948" 
d="M263 716q1 -73 2 -139.5t3 -125t5 -106.5t8 -83q13 -87 50 -125.5t95 -38.5q33 0 68 17t67.5 45t62 64t52.5 74q6 198 6 401q0 93 -1 177t-3.5 165t-6 162.5t-8.5 170.5h185q-5 -89 -8.5 -170.5t-6 -162.5t-3.5 -165t-1 -177t1 -180.5t3.5 -173t6 -171t8.5 -174.5h-186
q2 39 4 77.5t4 76.5q-29 -36 -61.5 -68.5t-70.5 -57t-81.5 -39t-94.5 -14.5q-119 0 -184.5 94.5t-65.5 281.5q0 46 0.5 98.5t1.5 103t1.5 93.5t0.5 70q0 93 -1 174t-3 159t-5.5 157t-8.5 168h184q-5 -89 -9 -168t-6.5 -157t-3.5 -159t0 -174z" />
    <glyph glyph-name="v" unicode="v" horiz-adv-x="835" 
d="M424 202q69 291 119.5 581.5t95.5 590.5h190q-32 -122 -63 -250t-59 -255.5t-53.5 -251t-47 -236t-39.5 -209.5t-31 -172h-237q-13 75 -31 172t-39.5 209.5t-47 236t-53.5 251t-59 255.5t-63 250h190q45 -300 95 -590.5t119 -581.5h14z" />
    <glyph glyph-name="w" unicode="w" horiz-adv-x="1296" 
d="M641 1123q-12 -88 -25.5 -191.5t-27.5 -211t-28 -214t-26 -202t-21.5 -174t-14.5 -130.5h-237q-11 75 -25.5 172t-32 209.5t-38.5 236t-44.5 251t-49.5 255.5t-53 250h193q38 -300 77.5 -590.5t86.5 -581.5h14q23 145 43.5 290t39 291.5t36.5 294t37 296.5h206
q37 -299 72.5 -591t82.5 -581h14q47 291 87 581.5t78 590.5h193q-27 -122 -53 -250t-49.5 -255.5t-44.5 -251t-38.5 -236t-32.5 -209.5t-25 -172h-237q-5 52 -14.5 130.5t-21.5 174t-26 202t-28 214t-28 211t-25 191.5h-14z" />
    <glyph glyph-name="x" unicode="x" horiz-adv-x="807" 
d="M206 1374q47 -143 95.5 -272t101.5 -256q54 127 102.5 256t95.5 272h186q-83 -173 -160.5 -343t-153.5 -346q71 -161 151.5 -328.5t172.5 -356.5h-185q-54 138 -105.5 266.5t-103.5 253.5q-52 -125 -103.5 -253.5t-104.5 -266.5h-185q91 189 171.5 356.5t152.5 328.5
q-76 176 -154 346t-160 343h186z" />
    <glyph glyph-name="y" unicode="y" horiz-adv-x="821" 
d="M163 -27q-45 0 -80 4.5t-44 6.5v142q5 -2 16.5 -5t27 -6t33.5 -5.5t35 -2.5q58 0 91.5 36.5t60.5 112.5q14 41 29 85.5t31 93.5q-26 77 -56.5 161t-62.5 169.5t-64 170t-62.5 163.5t-58 149l-49.5 126h186q19 -77 48 -173t61.5 -195t64.5 -193.5t58 -169.5q33 109 65 218
t59 206.5t47.5 177t31.5 129.5h186q-33 -98 -77 -228t-93.5 -281.5t-101.5 -318t-101 -335.5q-35 -120 -101.5 -179t-179.5 -59z" />
    <glyph glyph-name="z" unicode="z" horiz-adv-x="751" 
d="M40 0v10q121 303 232.5 620t204.5 627h-412v117h640v-10q-121 -303 -235 -620t-207 -627h448v-117h-671z" />
    <glyph glyph-name="braceleft" unicode="{" horiz-adv-x="707" 
d="M50 737h39q64 0 99 19.5t51 47t18.5 57t2.5 50.5q0 40 -6.5 76.5t-14 73t-13.5 75t-6 82.5q0 130 104 200.5t323 70.5v-107q-76 0 -126.5 -8.5t-80.5 -28.5t-42.5 -55t-12.5 -87q0 -44 6 -83.5t13.5 -77.5t14 -76t6.5 -78q0 -80 -46 -133.5t-154 -68.5q54 -5 92 -23
t62 -45.5t35 -62.5t11 -75q0 -41 -6.5 -78.5t-14 -75.5t-13.5 -77.5t-6 -83.5q0 -53 12.5 -87.5t42.5 -54.5t80.5 -28.5t126.5 -8.5v-107q-219 0 -323 70.5t-104 200.5q0 43 6 81.5t13.5 75.5t14 73.5t6.5 76.5q0 21 -2.5 51t-18.5 58.5t-51 48.5t-99 20h-39v102z" />
    <glyph glyph-name="bar" unicode="|" horiz-adv-x="512" 
d="M185 -483v2048h142v-2048h-142z" />
    <glyph glyph-name="braceright" unicode="}" horiz-adv-x="707" 
d="M657 635h-39q-65 0 -99.5 -20t-50.5 -48.5t-18.5 -58.5t-2.5 -51q0 -40 6 -76.5t13.5 -73.5t14 -75.5t6.5 -81.5q0 -130 -104 -200.5t-323 -70.5v107q76 0 126.5 8.5t80.5 28.5t42.5 54.5t12.5 87.5q0 44 -6.5 83.5t-14 77.5t-13.5 75.5t-6 78.5q0 40 11 75t35 62.5
t62 45.5t92 23q-108 15 -154 68.5t-46 133.5q0 40 6 78t13.5 76t14 77.5t6.5 83.5q0 52 -12.5 87t-42.5 55t-80.5 28.5t-126.5 8.5v107q219 0 323 -70.5t104 -200.5q0 -44 -6.5 -82.5t-14 -75t-13.5 -73t-6 -76.5q0 -21 2.5 -50.5t18.5 -57t50.5 -47t99.5 -19.5h39v-102z
" />
    <glyph glyph-name="asciitilde" unicode="~" horiz-adv-x="1124" 
d="M1024 665q-42 -42 -98.5 -71.5t-136.5 -29.5q-62 0 -118 17.5t-111.5 38t-112.5 38t-121 17.5q-35 0 -67.5 -10.5t-61 -27t-53.5 -36.5t-44 -40v145q42 43 104 71.5t130 28.5q61 0 117.5 -17.5t112.5 -38t113.5 -38t121.5 -17.5q34 0 66.5 10t61 26.5t53 37t44.5 41.5
v-145v0z" />
    <glyph glyph-name="nonbreakingspace" unicode="&#xa0;" horiz-adv-x="400" 
 />
    <glyph glyph-name="exclamdown" unicode="&#xa1;" horiz-adv-x="412" 
d="M272 936q0 -304 14 -535t25 -401h-210q11 170 25 401t14 535v102h132v-102zM102 1295q0 44 30 74t74 30q21 0 40 -8t33.5 -22t22.5 -33t8 -41q0 -21 -8 -40t-22.5 -33.5t-33.5 -22.5t-40 -8q-22 0 -41 8t-33 22.5t-22 33.5t-8 40z" />
    <glyph glyph-name="cent" unicode="&#xa2;" horiz-adv-x="877" 
d="M501 86q-94 11 -172 54t-134.5 119t-87.5 185.5t-31 254.5q0 144 32.5 253.5t90 185.5t135 119t167.5 54v160h92v-155q61 -2 112 -9t102 -18v-187q-22 15 -44 31.5t-47 30.5t-55 24t-68 13v-1004q38 3 68 13t55 24t47 30.5t44 31.5v-187q-51 -11 -102 -18.5t-112 -8.5
v-179h-92v183zM246 699q0 -220 69 -344t186 -152v991q-117 -27 -186 -151.5t-69 -343.5z" />
    <glyph glyph-name="sterling" unicode="&#xa3;" horiz-adv-x="790" 
d="M178 962q0 111 23.5 193.5t67 136.5t105 80.5t137.5 26.5q64 0 115 -8.5t84 -18.5v-169q-21 15 -40.5 28.5t-41 24t-45.5 16.5t-54 6q-102 0 -151 -86.5t-49 -273.5q0 -31 -0.5 -68.5t-0.5 -81.5h189v-112h-191q-1 -66 -2.5 -135.5t-3.5 -138.5t-4 -135t-4 -124h428v-123
h-621q25 125 37.5 290.5t17.5 365.5h-114v112h116q1 48 1.5 95.5t0.5 98.5z" />
    <glyph glyph-name="currency" unicode="&#xa4;" horiz-adv-x="846" 
d="M649 934q22 -34 35 -71.5t13 -77.5q0 -42 -13 -79t-33 -71l115 -112l-82 -82l-114 113q-31 -19 -69.5 -30t-78.5 -11t-77.5 11t-69.5 30l-113 -113l-82 82l113 112q-20 34 -31.5 71t-11.5 79q0 38 11.5 76.5t31.5 72.5l-113 115l80 80l115 -115q32 20 69.5 31.5
t77.5 11.5q42 0 79 -11.5t69 -31.5l114 115l82 -80zM422 621q34 0 64 12.5t52.5 35t36 52t13.5 64.5q0 34 -13.5 64t-36 52.5t-52.5 36t-64 13.5q-35 0 -64.5 -13.5t-52 -36t-35 -52.5t-12.5 -64t13 -63.5t35.5 -52t52 -35.5t63.5 -13z" />
    <glyph glyph-name="yen" unicode="&#xa5;" horiz-adv-x="804" 
d="M145 639h163q-73 212 -142 391t-134 344h184q43 -173 88.5 -325t94.5 -291h4q49 139 95 291t90 325h184q-66 -165 -133.5 -344t-140.5 -391h164v-112h-185q0 -30 0.5 -59.5t1.5 -58.5h183v-112h-181q2 -75 5 -148.5t8 -148.5h-183q5 75 8.5 148.5t5.5 148.5h-180v112h183
l2 118h-185v112z" />
    <glyph glyph-name="brokenbar" unicode="&#xa6;" horiz-adv-x="512" 
d="M185 672v758h142v-758h-142zM185 -352v758h142v-758h-142z" />
    <glyph glyph-name="section" unicode="&#xa7;" horiz-adv-x="836" 
d="M736 730q0 -80 -39 -132.5t-102 -85.5q42 -34 67 -76.5t25 -99.5q0 -56 -23 -97t-63 -68t-93.5 -40.5t-114.5 -13.5q-69 0 -127.5 10t-118.5 30v136q27 -17 53.5 -33t55 -28t61.5 -19t73 -7q45 0 77 9.5t52.5 26t30 39.5t9.5 49q0 44 -34 77t-85 62t-110.5 58.5
t-110.5 65.5t-85 82.5t-34 110.5q0 79 39.5 131.5t103.5 86.5q-42 33 -67 75t-25 102q0 55 22 96t60 68t89 40.5t109 13.5q57 0 113 -8.5t116 -25.5v-134q-28 15 -53.5 29.5t-52.5 25.5t-56.5 17.5t-63.5 6.5q-42 0 -71.5 -9.5t-48 -26t-27.5 -38.5t-9 -47q0 -44 34 -77.5
t85 -63t110 -59t110 -66t85 -83t34 -110.5zM611 706q0 45 -28 79t-72 62.5t-97 55t-104 55.5q-33 -20 -58.5 -58t-25.5 -89q0 -46 28 -80.5t72 -63.5t97.5 -55t103.5 -54q35 20 59.5 58.5t24.5 89.5z" />
    <glyph glyph-name="dieresis" unicode="&#xa8;" horiz-adv-x="541" 
d="M71 1240q0 34 23.5 57.5t57.5 23.5t57.5 -23.5t23.5 -57.5t-23.5 -57.5t-57.5 -23.5t-57.5 23.5t-23.5 57.5zM308 1240q0 34 23.5 57.5t57.5 23.5t57.5 -23.5t23.5 -57.5t-23.5 -57.5t-57.5 -23.5t-57.5 23.5t-23.5 57.5z" />
    <glyph glyph-name="copyright" unicode="&#xa9;" horiz-adv-x="1443" 
d="M1343 688q0 -86 -22 -165t-62.5 -148t-97.5 -125.5t-126 -97t-148.5 -62.5t-165.5 -22q-128 0 -241 49t-197.5 133t-133.5 197t-49 241t49 241t133.5 197.5t197.5 133.5t241 49q86 0 165.5 -22.5t148.5 -63t126 -97t97.5 -125.5t62.5 -148.5t22 -164.5zM977 375
q-32 -14 -59 -25t-55 -19t-59 -12.5t-71 -4.5q-78 0 -145 25.5t-116.5 73.5t-77.5 117t-28 156q0 88 28 157.5t77.5 118t116.5 74t145 25.5q40 0 71 -5t59 -13t55 -19.5t59 -24.5v-140q-32 29 -59.5 49.5t-54 33.5t-54 19t-60.5 6q-54 0 -97 -21t-73 -58.5t-46 -89
t-16 -112.5q0 -60 16 -111t46 -88t73 -58t97 -21q33 0 60.5 6t54 18.5t54 32.5t59.5 48v-138zM217 688q0 -105 39.5 -197t108 -161t160 -108.5t196.5 -39.5t197 39.5t161 108.5t108.5 161t39.5 197t-39.5 197.5t-108.5 161t-161 108t-197 39.5t-196.5 -39.5t-160 -108
t-108 -161t-39.5 -197.5z" />
    <glyph glyph-name="ordfeminine" unicode="&#xaa;" horiz-adv-x="535" 
d="M53 475v98h422v-98h-422zM352 702l3 55q-29 -27 -63.5 -47t-79.5 -20q-37 0 -68.5 12t-55 36t-37 59.5t-13.5 82.5q0 60 19 102.5t58.5 72t101 48t145.5 29.5q0 53 -4.5 89t-15.5 58.5t-29.5 32.5t-46.5 10q-48 0 -95.5 -21.5t-93.5 -58.5v116q25 8 48 14.5t46 11.5
t46.5 8t49.5 3q105 0 156.5 -49.5t51.5 -163.5q0 -8 -0.5 -32.5t-1 -53.5l-1 -58t-0.5 -46q0 -53 1.5 -129t9.5 -161h-131zM359 844q2 50 3.5 101t1.5 125q-114 -16 -161 -62t-47 -119q0 -32 7.5 -54.5t20 -37t28 -21.5t32.5 -7q36 0 62.5 22.5t52.5 52.5z" />
    <glyph glyph-name="guillemotleft" unicode="&#xab;" horiz-adv-x="760" 
d="M288 300l-228 385l228 383l116 -75l-199 -308l199 -310zM598 300l-228 385l228 383l116 -75l-199 -308l199 -310z" />
    <glyph glyph-name="logicalnot" unicode="&#xac;" horiz-adv-x="1124" 
d="M832 494v267h-662v122h784v-389h-122z" />
    <glyph glyph-name="uni00AD" unicode="&#xad;" horiz-adv-x="610" 
d="M120 616v141h370v-141h-370z" />
    <glyph glyph-name="registered" unicode="&#xae;" horiz-adv-x="993" 
d="M526 1223q59 0 98 -34.5t39 -104.5q0 -45 -16.5 -78.5t-45.5 -50.5q1 -5 7 -22.5t17 -44.5t27.5 -62.5t39.5 -75.5h-101q-15 38 -27 73t-20 61q-10 31 -16 57h-91q0 -47 2 -95l4 -96h-91q4 58 5 121.5t1 116.5q0 52 -1 115t-5 120h174zM442 1158q-2 -24 -2.5 -42.5
t-1.5 -35.5t-1 -34.5v-38.5h63q14 0 27 3t22.5 11.5t15 23.5t5.5 39t-5 39t-14.5 22.5t-22.5 10t-28 2.5h-58zM913 983q0 -86 -33 -162t-89.5 -132.5t-132.5 -89.5t-162 -33t-161.5 33t-132 89.5t-89.5 132.5t-33 162q0 87 33 162.5t89.5 132t132 89t161.5 32.5t162 -32.5
t132.5 -89t89.5 -132t33 -162.5zM170 983q0 -68 25.5 -127.5t69.5 -104t103.5 -70t127.5 -25.5q69 0 128.5 25.5t103.5 70t69.5 104t25.5 127.5t-25.5 128t-69.5 104.5t-103.5 70t-128.5 25.5q-68 0 -127.5 -25.5t-103.5 -70t-69.5 -104.5t-25.5 -128z" />
    <glyph glyph-name="macron" unicode="&#xaf;" horiz-adv-x="541" 
d="M100 1169v117h341v-117h-341z" />
    <glyph glyph-name="degree" unicode="&#xb0;" horiz-adv-x="542" 
d="M60 1188q0 43 16.5 81.5t45 67t67 45.5t82.5 17q43 0 81.5 -17t67 -45.5t45.5 -67t17 -81.5q0 -44 -17 -82.5t-45.5 -67t-67 -45t-81.5 -16.5q-44 0 -82.5 16.5t-67 45t-45 67t-16.5 82.5zM166 1188q0 -45 30 -75t75 -30q21 0 40 8t33.5 22.5t23 33.5t8.5 41
q0 21 -8.5 40t-23 33.5t-33.5 23t-40 8.5q-22 0 -41 -8.5t-33.5 -23t-22.5 -33.5t-8 -40z" />
    <glyph glyph-name="plusminus" unicode="&#xb1;" horiz-adv-x="1124" 
d="M623 694v-315h-122v315h-351v122h351v314h122v-314h351v-122h-351zM974 278v-122h-824v122h824z" />
    <glyph glyph-name="twosuperior" unicode="&#xb2;" horiz-adv-x="549" 
d="M50 508v86q87 89 145.5 157.5t93.5 128.5t49 118t13 126q-2 88 -39 128.5t-90 40.5q-37 0 -79.5 -17t-88.5 -59v124q48 30 96.5 39t89.5 9q49 0 94 -15t79 -46.5t54 -79.5t20 -114q0 -71 -19.5 -136t-58 -129t-94.5 -129t-129 -135q66 0 125 1q25 0 51 0.5t50 1.5t44 1.5
t33 2.5v-104h-439z" />
    <glyph glyph-name="threesuperior" unicode="&#xb3;" horiz-adv-x="573" 
d="M323 976q36 -11 70 -30.5t61 -48.5t43 -68t16 -88q0 -63 -21.5 -110.5t-59 -79.5t-88 -48t-107.5 -16q-53 0 -99.5 11.5t-87.5 31.5v126q22 -17 42.5 -31t41.5 -23.5t44 -15t50 -5.5q69 0 110.5 42.5t41.5 117.5q0 37 -12 71t-37.5 59.5t-65.5 40.5t-95 15v92q51 0 87 14
t58.5 35.5t33 49t10.5 54.5q0 25 -9 47.5t-25.5 39.5t-40.5 26.5t-54 9.5q-37 0 -77.5 -14.5t-85.5 -50.5v121q48 20 91 29t94 9q48 0 91 -13t76 -39t52 -65.5t19 -91.5q0 -35 -13 -66.5t-35.5 -57.5t-53 -46.5t-65.5 -33.5z" />
    <glyph glyph-name="acute" unicode="&#xb4;" horiz-adv-x="541" 
d="M234 1139l131 276h178l-203 -276h-106z" />
    <glyph glyph-name="micro" unicode="&#xb5;" horiz-adv-x="884" 
d="M382 958q-11 -38 -22.5 -89.5t-24 -110t-25 -120t-24.5 -120.5q-27 -138 -55 -288q0 -73 29 -105t77 -32q23 0 52.5 14t60 36t58.5 49t48 54q29 159 55 299q11 60 21.5 121t19.5 116.5t16 101t10 74.5h176q-35 -142 -64 -286.5t-51 -273.5t-36.5 -233t-18.5 -165h-172
l21 121q-23 -29 -49.5 -55t-55 -45.5t-57 -31.5t-55.5 -12t-46.5 9.5t-33 23t-22.5 29.5t-16 29l-88 -478h-170q18 75 38.5 165t41 188.5t41 201.5t39.5 203t36 193.5t31 173.5t24 142.5t15 100.5h176z" />
    <glyph glyph-name="paragraph" unicode="&#xb6;" horiz-adv-x="911" 
d="M671 0v1303h-132v-1303h-90v592q-83 0 -151 22.5t-116.5 69.5t-75 121t-26.5 178t26.5 178t75 121.5t116.5 69.5t151 22h312v-1374h-90z" />
    <glyph glyph-name="periodcentered" unicode="&#xb7;" horiz-adv-x="308" 
d="M50 686q0 21 8 40t22 33.5t33 22.5t41 8q21 0 40 -8t33.5 -22.5t22.5 -33.5t8 -40q0 -22 -8 -41t-22.5 -33t-33.5 -22t-40 -8q-44 0 -74 30t-30 74z" />
    <glyph glyph-name="cedilla" unicode="&#xb8;" horiz-adv-x="541" 
d="M223 30h93l-35 -107q24 -4 45.5 -15t37.5 -28.5t25.5 -41.5t9.5 -54q0 -36 -12 -63t-32.5 -45t-48 -27t-58.5 -9q-34 0 -62.5 6t-48.5 12v110q19 -18 42.5 -30t52.5 -12q37 0 53 21t16 45q0 76 -121 76z" />
    <glyph glyph-name="onesuperior" unicode="&#xb9;" horiz-adv-x="336" 
d="M15 1372l231 27q-4 -54 -6 -113.5t-3.5 -118.5t-2 -115.5t-0.5 -105.5t0.5 -103t1.5 -110.5t3.5 -113.5t5.5 -111h-145q4 54 6.5 111t4 113.5t2 110.5t0.5 103t-1 103t-2.5 103.5t-3 90t-2.5 62.5l-89 -7v74z" />
    <glyph glyph-name="ordmasculine" unicode="&#xba;" horiz-adv-x="561" 
d="M63 475v98h439v-98h-439zM523 1040q0 -92 -18.5 -158.5t-51 -110t-77 -64.5t-95.5 -21t-95.5 21t-77.5 64.5t-51.5 110t-18.5 158.5q0 91 18.5 158t51.5 110t77.5 64t95.5 21t95.5 -21t77 -64t51 -110t18.5 -158zM405 1040q0 73 -9.5 124.5t-26 84.5t-39 48.5t-49.5 15.5
t-50 -15.5t-39.5 -48.5t-26 -84.5t-9.5 -124.5t9.5 -125t26 -85t39.5 -48.5t50 -15.5t49.5 15.5t39 48.5t26 85t9.5 125z" />
    <glyph glyph-name="guillemotright" unicode="&#xbb;" horiz-adv-x="760" 
d="M356 375l199 310l-199 308l116 75l228 -383l-228 -385zM46 375l199 310l-199 308l116 75l228 -383l-228 -385z" />
    <glyph glyph-name="onequarter" unicode="&#xbc;" horiz-adv-x="938" 
d="M815 729q-6 -91 -8 -186.5t-2 -177.5v-101h93v-85h-92q2 -48 3.5 -90t4.5 -89h-132q3 47 5 89t4 90h-265v93q42 88 86 169.5t79 145.5q41 75 81 142h143zM176 0h-109l581 1374h109zM30 1376l205 23q-3 -46 -5 -96t-3 -99.5t-1.5 -97.5t-0.5 -89q0 -83 2 -181.5t7 -190.5
h-132q6 92 8.5 190.5t2.5 181.5q0 42 -1 87.5t-2 87t-2.5 75.5t-2.5 53l-75 -6v62zM689 601q-54 -94 -97.5 -182t-78.5 -155h179q1 29 1 52v49q0 56 -1 114t-3 122z" />
    <glyph glyph-name="onehalf" unicode="&#xbd;" horiz-adv-x="961" 
d="M176 0h-109l581 1374h109zM30 1376l205 23q-3 -46 -5 -96t-3 -99.5t-1.5 -97.5t-0.5 -89q0 -83 2 -181.5t7 -190.5h-132q6 92 8.5 190.5t2.5 181.5q0 42 -1 87.5t-2 87t-2.5 75.5t-2.5 53l-75 -6v62zM529 0v76q75 75 126 133t81 109t42 98.5t11 100.5q-2 65 -34 99
t-80 34q-32 0 -67.5 -14.5t-75.5 -49.5v116q42 26 84 33.5t77 7.5q43 0 82 -14t69 -42t47.5 -69.5t17.5 -96.5q0 -58 -16 -111t-47.5 -105.5t-79 -106t-110.5 -113.5q56 0 105 1q21 0 43 0.5t42 1t37 1.5t28 2v-91h-382z" />
    <glyph glyph-name="threequarters" unicode="&#xbe;" horiz-adv-x="1049" 
d="M926 729q-6 -91 -8 -186.5t-2 -177.5v-101h93v-85h-92q2 -48 3.5 -90t4.5 -89h-132q3 47 5 89t4 90h-265v93q42 88 86 169.5t79 145.5q41 75 81 142h143zM287 0h-109l581 1374h109zM254 1042q28 -9 55.5 -26t48.5 -41.5t34 -57.5t13 -74q0 -53 -18 -92.5t-49 -66t-72 -40
t-87 -13.5q-42 0 -79.5 9t-69.5 26v114q35 -28 67.5 -45t74.5 -17q55 0 87 33.5t32 95.5q0 31 -9 58t-29 47.5t-51.5 32t-75.5 11.5v83q41 0 69 10.5t45.5 27.5t25.5 38.5t8 44.5q0 43 -26 70.5t-75 27.5q-29 0 -61.5 -12t-67.5 -42v110q38 17 73.5 24t75.5 7q38 0 73 -11
t62 -32.5t43 -54.5t16 -77q0 -29 -10.5 -55t-28.5 -47.5t-42 -38t-52 -27.5zM800 601q-54 -94 -97.5 -182t-78.5 -155h179q1 29 1 52v49q0 56 -1 114t-3 122z" />
    <glyph glyph-name="questiondown" unicode="&#xbf;" horiz-adv-x="670" 
d="M50 289q0 66 24.5 123t61 107.5t79 94.5t79 85t61 79.5t24.5 76.5q0 22 -8.5 39t-20.5 29t-25 20.5t-23 13.5l105 99q50 -36 82.5 -88t32.5 -107q0 -57 -22.5 -108.5t-56 -100t-73 -94t-73 -91t-56 -91.5t-22.5 -95q0 -48 13.5 -83.5t36.5 -59.5t54.5 -36t67.5 -12
q66 0 122 35t107 92v-190q-49 -22 -115 -38t-130 -16q-70 0 -129.5 22.5t-103 63.5t-68 99.5t-24.5 130.5zM505 1295q0 -21 -8 -40t-22 -33.5t-33 -22.5t-41 -8q-21 0 -40 8t-33.5 22.5t-22.5 33.5t-8 40q0 22 8 41t22.5 33t33.5 22t40 8q44 0 74 -30t30 -74z" />
    <glyph glyph-name="Agrave" unicode="&#xc0;" horiz-adv-x="835" 
d="M639 0q-14 96 -29 190l-30 188h-325q-16 -94 -30.5 -188t-28.5 -190h-190q32 121 63 249.5t59 256t53.5 251t47 236t39.5 209.5t31 172h237q13 -75 31 -172t39.5 -209.5t47 -236t53.5 -251t59 -256t63 -249.5h-190zM410 1172q-41 -170 -74 -338t-62 -339h286
q-29 171 -62.5 339t-73.5 338h-14zM364 1501l-203 276h178l131 -276h-106z" />
    <glyph glyph-name="Aacute" unicode="&#xc1;" horiz-adv-x="835" 
d="M639 0q-14 96 -29 190l-30 188h-325q-16 -94 -30.5 -188t-28.5 -190h-190q32 121 63 249.5t59 256t53.5 251t47 236t39.5 209.5t31 172h237q13 -75 31 -172t39.5 -209.5t47 -236t53.5 -251t59 -256t63 -249.5h-190zM410 1172q-41 -170 -74 -338t-62 -339h286
q-29 171 -62.5 339t-73.5 338h-14zM360 1501l131 276h178l-203 -276h-106z" />
    <glyph glyph-name="Acircumflex" unicode="&#xc2;" horiz-adv-x="835" 
d="M639 0q-14 96 -29 190l-30 188h-325q-16 -94 -30.5 -188t-28.5 -190h-190q32 121 63 249.5t59 256t53.5 251t47 236t39.5 209.5t31 172h237q13 -75 31 -172t39.5 -209.5t47 -236t53.5 -251t59 -256t63 -249.5h-190zM410 1172q-41 -170 -74 -338t-62 -339h286
q-29 171 -62.5 339t-73.5 338h-14zM513 1501l-96 165l-96 -165h-102l125 276h147l125 -276h-103z" />
    <glyph glyph-name="Atilde" unicode="&#xc3;" horiz-adv-x="835" 
d="M639 0q-14 96 -29 190l-30 188h-325q-16 -94 -30.5 -188t-28.5 -190h-190q32 121 63 249.5t59 256t53.5 251t47 236t39.5 209.5t31 172h237q13 -75 31 -172t39.5 -209.5t47 -236t53.5 -251t59 -256t63 -249.5h-190zM410 1172q-41 -170 -74 -338t-62 -339h286
q-29 171 -62.5 339t-73.5 338h-14zM616 1732q0 -26 -2.5 -64.5t-13.5 -73.5t-32.5 -60t-60.5 -25q-32 0 -56.5 17.5t-43.5 38t-34.5 38t-28.5 17.5t-20 -13.5t-9.5 -31.5t-1.5 -36.5t4 -29.5h-100q0 26 2.5 64t13 73.5t32.5 60.5t60 25q32 0 56.5 -17.5t44 -38t34.5 -38
t29 -17.5q13 0 20 12.5t9.5 30t1.5 36.5t-4 32h100v0z" />
    <glyph glyph-name="Adieresis" unicode="&#xc4;" horiz-adv-x="835" 
d="M639 0q-14 96 -29 190l-30 188h-325q-16 -94 -30.5 -188t-28.5 -190h-190q32 121 63 249.5t59 256t53.5 251t47 236t39.5 209.5t31 172h237q13 -75 31 -172t39.5 -209.5t47 -236t53.5 -251t59 -256t63 -249.5h-190zM410 1172q-41 -170 -74 -338t-62 -339h286
q-29 171 -62.5 339t-73.5 338h-14zM217 1602q0 34 23.5 57.5t57.5 23.5t57.5 -23.5t23.5 -57.5t-23.5 -57.5t-57.5 -23.5t-57.5 23.5t-23.5 57.5zM454 1602q0 34 23.5 57.5t57.5 23.5t57.5 -23.5t23.5 -57.5t-23.5 -57.5t-57.5 -23.5t-57.5 23.5t-23.5 57.5z" />
    <glyph glyph-name="Aring" unicode="&#xc5;" horiz-adv-x="835" 
d="M639 0q-14 96 -29 190l-30 188h-325q-16 -94 -30.5 -188t-28.5 -190h-190q32 121 63 249.5t59 256t53.5 251t47 236t39.5 209.5t31 172h237q13 -75 31 -172t39.5 -209.5t47 -236t53.5 -251t59 -256t63 -249.5h-190zM410 1172q-41 -170 -74 -338t-62 -339h286
q-29 171 -62.5 339t-73.5 338h-14zM243 1646q0 36 13.5 67.5t37.5 55.5t55.5 37.5t67.5 13.5t68 -13.5t55.5 -37.5t37 -55.5t13.5 -67.5t-13.5 -67.5t-37 -55.5t-55.5 -37.5t-68 -13.5t-67.5 13.5t-55.5 37.5t-37.5 55.5t-13.5 67.5zM337 1646q0 -16 6.5 -30.5t17.5 -25.5
t25.5 -17.5t30.5 -6.5t30.5 6.5t25.5 17.5t17.5 25.5t6.5 30.5t-6.5 30.5t-17.5 25.5t-25.5 17.5t-30.5 6.5t-30.5 -6.5t-25.5 -17.5t-17.5 -25.5t-6.5 -30.5z" />
    <glyph glyph-name="AE" unicode="&#xc6;" horiz-adv-x="1155" 
d="M1071 1257h-398q-6 -115 -8.5 -229.5t-3.5 -222.5h381v-117h-381q0 -129 2 -276.5t9 -294.5h405v-117h-586q6 92 9.5 187.5t5.5 190.5h-251q-16 -98 -30.5 -192.5t-28.5 -185.5h-190q32 121 63 249.5t59 256t53.5 251t47 236t39.5 209.5t31 172h772v-117zM510 688
q0 128 -2.5 275t-9.5 293h-70q-42 -177 -80.5 -370.5t-72.5 -390.5h234q1 51 1 99v94z" />
    <glyph glyph-name="Ccedilla" unicode="&#xc7;" horiz-adv-x="852" 
d="M242 686q0 -144 23 -254.5t65.5 -185.5t102 -113.5t132.5 -38.5q44 0 78 11t61.5 27.5t51.5 37t47 39.5v-201q-56 -14 -112.5 -22.5t-125.5 -8.5q-107 0 -198 43t-157.5 130.5t-104 221t-37.5 314.5t39.5 314.5t107 221t158 130.5t192.5 43q69 0 125.5 -8.5t112.5 -22.5
v-201q-23 19 -47 39.5t-51.5 37t-61.5 27.5t-78 11q-73 0 -132.5 -38.5t-102 -113.5t-65.5 -185.5t-23 -254.5zM486 30h93l-35 -107q24 -4 45.5 -15t37.5 -28.5t25.5 -41.5t9.5 -54q0 -36 -12 -63t-32.5 -45t-48 -27t-58.5 -9q-34 0 -62.5 6t-48.5 12v110q19 -18 42.5 -30
t52.5 -12q37 0 53 21t16 45q0 76 -121 76z" />
    <glyph glyph-name="Egrave" unicode="&#xc8;" horiz-adv-x="764" 
d="M680 1374v-117h-398q-6 -115 -8.5 -229.5t-3.5 -222.5h381v-117h-381q0 -129 2 -276.5t9 -294.5h405v-117h-586q6 85 9.5 174.5t5.5 178t3 173.5t1 162t-1 162t-3 173t-5.5 177t-9.5 174h580zM338 1501l-203 276h178l131 -276h-106z" />
    <glyph glyph-name="Eacute" unicode="&#xc9;" horiz-adv-x="764" 
d="M680 1374v-117h-398q-6 -115 -8.5 -229.5t-3.5 -222.5h381v-117h-381q0 -129 2 -276.5t9 -294.5h405v-117h-586q6 85 9.5 174.5t5.5 178t3 173.5t1 162t-1 162t-3 173t-5.5 177t-9.5 174h580zM334 1501l131 276h178l-203 -276h-106z" />
    <glyph glyph-name="Ecircumflex" unicode="&#xca;" horiz-adv-x="764" 
d="M680 1374v-117h-398q-6 -115 -8.5 -229.5t-3.5 -222.5h381v-117h-381q0 -129 2 -276.5t9 -294.5h405v-117h-586q6 85 9.5 174.5t5.5 178t3 173.5t1 162t-1 162t-3 173t-5.5 177t-9.5 174h580zM487 1501l-96 165l-96 -165h-102l125 276h147l125 -276h-103z" />
    <glyph glyph-name="Edieresis" unicode="&#xcb;" horiz-adv-x="764" 
d="M680 1374v-117h-398q-6 -115 -8.5 -229.5t-3.5 -222.5h381v-117h-381q0 -129 2 -276.5t9 -294.5h405v-117h-586q6 85 9.5 174.5t5.5 178t3 173.5t1 162t-1 162t-3 173t-5.5 177t-9.5 174h580zM191 1602q0 34 23.5 57.5t57.5 23.5t57.5 -23.5t23.5 -57.5t-23.5 -57.5
t-57.5 -23.5t-57.5 23.5t-23.5 57.5zM428 1602q0 34 23.5 57.5t57.5 23.5t57.5 -23.5t23.5 -57.5t-23.5 -57.5t-57.5 -23.5t-57.5 23.5t-23.5 57.5z" />
    <glyph glyph-name="Igrave" unicode="&#xcc;" horiz-adv-x="401" 
d="M295 1374q-6 -85 -9.5 -174t-5.5 -177t-3 -173t-1 -162t1 -162t3 -173.5t5 -178t8 -174.5h-187q6 85 9.5 174.5t5.5 178t3 173.5t1 162t-1 162t-3 173t-5.5 177t-9.5 174h189zM150 1501l-203 276h178l131 -276h-106z" />
    <glyph glyph-name="Iacute" unicode="&#xcd;" horiz-adv-x="401" 
d="M295 1374q-6 -85 -9.5 -174t-5.5 -177t-3 -173t-1 -162t1 -162t3 -173.5t5 -178t8 -174.5h-187q6 85 9.5 174.5t5.5 178t3 173.5t1 162t-1 162t-3 173t-5.5 177t-9.5 174h189zM146 1501l131 276h178l-203 -276h-106z" />
    <glyph glyph-name="Icircumflex" unicode="&#xce;" horiz-adv-x="401" 
d="M295 1374q-6 -85 -9.5 -174t-5.5 -177t-3 -173t-1 -162t1 -162t3 -173.5t5 -178t8 -174.5h-187q6 85 9.5 174.5t5.5 178t3 173.5t1 162t-1 162t-3 173t-5.5 177t-9.5 174h189zM299 1501l-96 165l-96 -165h-102l125 276h147l125 -276h-103z" />
    <glyph glyph-name="Idieresis" unicode="&#xcf;" horiz-adv-x="401" 
d="M295 1374q-6 -85 -9.5 -174t-5.5 -177t-3 -173t-1 -162t1 -162t3 -173.5t5 -178t8 -174.5h-187q6 85 9.5 174.5t5.5 178t3 173.5t1 162t-1 162t-3 173t-5.5 177t-9.5 174h189zM3 1602q0 34 23.5 57.5t57.5 23.5t57.5 -23.5t23.5 -57.5t-23.5 -57.5t-57.5 -23.5
t-57.5 23.5t-23.5 57.5zM240 1602q0 34 23.5 57.5t57.5 23.5t57.5 -23.5t23.5 -57.5t-23.5 -57.5t-57.5 -23.5t-57.5 23.5t-23.5 57.5z" />
    <glyph glyph-name="Eth" unicode="&#xd0;" horiz-adv-x="964" 
d="M100 0q5 79 8.5 161t6 164t3.5 161.5t1 153.5h-119v123h119q0 71 -1.5 147.5t-3.5 154.5t-5.5 156t-8.5 153h313q107 0 196 -33t152.5 -112.5t99 -211.5t35.5 -329q0 -198 -35.5 -330.5t-99.5 -212t-153 -112.5t-197 -33h-311zM270 640q0 -121 2.5 -256t8.5 -269h134
q43 0 82.5 9.5t73 33.5t61.5 65.5t47.5 105t30 152t10.5 207.5t-10.5 207.5t-30 152t-47.5 104.5t-61.5 65t-73 33.5t-82.5 9.5h-133q-6 -127 -8.5 -254t-3.5 -243h177v-123h-177z" />
    <glyph glyph-name="Ntilde" unicode="&#xd1;" horiz-adv-x="951" 
d="M851 1374q-6 -85 -9.5 -174t-5.5 -177t-3 -173t-1 -162t1 -162t3 -173.5t5 -178t8 -174.5h-185q-51 147 -100 280t-97.5 257.5t-96.5 243t-96 235.5h-7q-2 -87 -1.5 -169.5t0.5 -158.5q0 -77 1 -162t3 -173.5t5 -178t8 -174.5h-183q6 85 9.5 174.5t5.5 178t3 173.5t1 162
t-1 162t-3 173t-5.5 177t-9.5 174h187q101 -294 198 -555t194 -495h7q1 44 1 92t-0.5 95.5t-1 92.5t-0.5 84q0 77 -1 162t-3 173t-5.5 177t-9.5 174h185zM682 1732q0 -26 -2.5 -64.5t-13.5 -73.5t-32.5 -60t-60.5 -25q-32 0 -56.5 17.5t-43.5 38t-34.5 38t-28.5 17.5
t-20 -13.5t-9.5 -31.5t-1.5 -36.5t4 -29.5h-100q0 26 2.5 64t13 73.5t32.5 60.5t60 25q32 0 56.5 -17.5t44 -38t34.5 -38t29 -17.5q13 0 20 12.5t9.5 30t1.5 36.5t-4 32h100v0z" />
    <glyph glyph-name="Ograve" unicode="&#xd2;" 
d="M934 686q0 -185 -33 -319.5t-91.5 -222t-137.5 -129.5t-170 -42q-92 0 -171 42t-137.5 129.5t-92 222t-33.5 319.5q0 184 33.5 318.5t92 222.5t137.5 130t171 42q91 0 170 -42t137.5 -130t91.5 -222.5t33 -318.5zM762 686q0 154 -20 266t-55 184.5t-82.5 107t-102.5 34.5
q-56 0 -103.5 -34.5t-83 -107t-55.5 -184.5t-20 -266q0 -155 20 -267t55.5 -184t83 -106.5t103.5 -34.5q55 0 102.5 34.5t82.5 106.5t55 184t20 267zM448 1501l-203 276h178l131 -276h-106z" />
    <glyph glyph-name="Oacute" unicode="&#xd3;" 
d="M934 686q0 -185 -33 -319.5t-91.5 -222t-137.5 -129.5t-170 -42q-92 0 -171 42t-137.5 129.5t-92 222t-33.5 319.5q0 184 33.5 318.5t92 222.5t137.5 130t171 42q91 0 170 -42t137.5 -130t91.5 -222.5t33 -318.5zM762 686q0 154 -20 266t-55 184.5t-82.5 107t-102.5 34.5
q-56 0 -103.5 -34.5t-83 -107t-55.5 -184.5t-20 -266q0 -155 20 -267t55.5 -184t83 -106.5t103.5 -34.5q55 0 102.5 34.5t82.5 106.5t55 184t20 267zM444 1501l131 276h178l-203 -276h-106z" />
    <glyph glyph-name="Ocircumflex" unicode="&#xd4;" 
d="M934 686q0 -185 -33 -319.5t-91.5 -222t-137.5 -129.5t-170 -42q-92 0 -171 42t-137.5 129.5t-92 222t-33.5 319.5q0 184 33.5 318.5t92 222.5t137.5 130t171 42q91 0 170 -42t137.5 -130t91.5 -222.5t33 -318.5zM762 686q0 154 -20 266t-55 184.5t-82.5 107t-102.5 34.5
q-56 0 -103.5 -34.5t-83 -107t-55.5 -184.5t-20 -266q0 -155 20 -267t55.5 -184t83 -106.5t103.5 -34.5q55 0 102.5 34.5t82.5 106.5t55 184t20 267zM597 1501l-96 165l-96 -165h-102l125 276h147l125 -276h-103z" />
    <glyph glyph-name="Otilde" unicode="&#xd5;" 
d="M934 686q0 -185 -33 -319.5t-91.5 -222t-137.5 -129.5t-170 -42q-92 0 -171 42t-137.5 129.5t-92 222t-33.5 319.5q0 184 33.5 318.5t92 222.5t137.5 130t171 42q91 0 170 -42t137.5 -130t91.5 -222.5t33 -318.5zM762 686q0 154 -20 266t-55 184.5t-82.5 107t-102.5 34.5
q-56 0 -103.5 -34.5t-83 -107t-55.5 -184.5t-20 -266q0 -155 20 -267t55.5 -184t83 -106.5t103.5 -34.5q55 0 102.5 34.5t82.5 106.5t55 184t20 267zM700 1732q0 -26 -2.5 -64.5t-13.5 -73.5t-32.5 -60t-60.5 -25q-32 0 -56.5 17.5t-43.5 38t-34.5 38t-28.5 17.5t-20 -13.5
t-9.5 -31.5t-1.5 -36.5t4 -29.5h-100q0 26 2.5 64t13 73.5t32.5 60.5t60 25q32 0 56.5 -17.5t44 -38t34.5 -38t29 -17.5q13 0 20 12.5t9.5 30t1.5 36.5t-4 32h100v0z" />
    <glyph glyph-name="Odieresis" unicode="&#xd6;" 
d="M934 686q0 -185 -33 -319.5t-91.5 -222t-137.5 -129.5t-170 -42q-92 0 -171 42t-137.5 129.5t-92 222t-33.5 319.5q0 184 33.5 318.5t92 222.5t137.5 130t171 42q91 0 170 -42t137.5 -130t91.5 -222.5t33 -318.5zM762 686q0 154 -20 266t-55 184.5t-82.5 107t-102.5 34.5
q-56 0 -103.5 -34.5t-83 -107t-55.5 -184.5t-20 -266q0 -155 20 -267t55.5 -184t83 -106.5t103.5 -34.5q55 0 102.5 34.5t82.5 106.5t55 184t20 267zM301 1602q0 34 23.5 57.5t57.5 23.5t57.5 -23.5t23.5 -57.5t-23.5 -57.5t-57.5 -23.5t-57.5 23.5t-23.5 57.5zM538 1602
q0 34 23.5 57.5t57.5 23.5t57.5 -23.5t23.5 -57.5t-23.5 -57.5t-57.5 -23.5t-57.5 23.5t-23.5 57.5z" />
    <glyph glyph-name="multiply" unicode="&#xd7;" horiz-adv-x="1124" 
d="M563 598l-273 -272l-86 86l272 273l-269 269l86 86l270 -269l271 272l87 -87l-272 -271l269 -270l-86 -86z" />
    <glyph glyph-name="Oslash" unicode="&#xd8;" 
d="M934 686q0 -185 -33 -319.5t-91.5 -222t-137.5 -129.5t-170 -42q-80 0 -152 32l-33 -107l-113 36l44 143q-83 82 -131.5 233t-48.5 376q0 184 33.5 318.5t92 222.5t137.5 130t171 42q80 0 148 -31l33 106l113 -36l-44 -141q42 -41 75.5 -99.5t57 -134t36.5 -170
t13 -207.5zM762 686q0 145 -17.5 251.5t-48.5 178.5l-305 -981q25 -21 53 -31t58 -10q55 0 102.5 34.5t82.5 106.5t55 184t20 267zM240 686q0 -144 17 -249.5t48 -178.5l305 981q-50 39 -108 39q-56 0 -103.5 -34.5t-83 -107t-55.5 -184.5t-20 -266z" />
    <glyph glyph-name="Ugrave" unicode="&#xd9;" horiz-adv-x="960" 
d="M480 95q56 0 97 22t68 63t40.5 100.5t13.5 133.5v323q0 152 -3.5 312.5t-14.5 324.5h188q-9 -165 -13.5 -326t-4.5 -311v-323q0 -104 -23 -186t-69 -139t-115.5 -87.5t-163.5 -30.5t-163.5 30.5t-115.5 87.5t-69 139t-23 186v323q0 150 -4.5 311t-13.5 326h188
q-11 -164 -14.5 -324.5t-3.5 -312.5v-323q0 -74 13 -133.5t40 -100.5t68.5 -63t97.5 -22zM426 1501l-203 276h178l131 -276h-106z" />
    <glyph glyph-name="Uacute" unicode="&#xda;" horiz-adv-x="960" 
d="M480 95q56 0 97 22t68 63t40.5 100.5t13.5 133.5v323q0 152 -3.5 312.5t-14.5 324.5h188q-9 -165 -13.5 -326t-4.5 -311v-323q0 -104 -23 -186t-69 -139t-115.5 -87.5t-163.5 -30.5t-163.5 30.5t-115.5 87.5t-69 139t-23 186v323q0 150 -4.5 311t-13.5 326h188
q-11 -164 -14.5 -324.5t-3.5 -312.5v-323q0 -74 13 -133.5t40 -100.5t68.5 -63t97.5 -22zM422 1501l131 276h178l-203 -276h-106z" />
    <glyph glyph-name="Ucircumflex" unicode="&#xdb;" horiz-adv-x="960" 
d="M480 95q56 0 97 22t68 63t40.5 100.5t13.5 133.5v323q0 152 -3.5 312.5t-14.5 324.5h188q-9 -165 -13.5 -326t-4.5 -311v-323q0 -104 -23 -186t-69 -139t-115.5 -87.5t-163.5 -30.5t-163.5 30.5t-115.5 87.5t-69 139t-23 186v323q0 150 -4.5 311t-13.5 326h188
q-11 -164 -14.5 -324.5t-3.5 -312.5v-323q0 -74 13 -133.5t40 -100.5t68.5 -63t97.5 -22zM575 1501l-96 165l-96 -165h-102l125 276h147l125 -276h-103z" />
    <glyph glyph-name="Udieresis" unicode="&#xdc;" horiz-adv-x="960" 
d="M480 95q56 0 97 22t68 63t40.5 100.5t13.5 133.5v323q0 152 -3.5 312.5t-14.5 324.5h188q-9 -165 -13.5 -326t-4.5 -311v-323q0 -104 -23 -186t-69 -139t-115.5 -87.5t-163.5 -30.5t-163.5 30.5t-115.5 87.5t-69 139t-23 186v323q0 150 -4.5 311t-13.5 326h188
q-11 -164 -14.5 -324.5t-3.5 -312.5v-323q0 -74 13 -133.5t40 -100.5t68.5 -63t97.5 -22zM279 1602q0 34 23.5 57.5t57.5 23.5t57.5 -23.5t23.5 -57.5t-23.5 -57.5t-57.5 -23.5t-57.5 23.5t-23.5 57.5zM516 1602q0 34 23.5 57.5t57.5 23.5t57.5 -23.5t23.5 -57.5
t-23.5 -57.5t-57.5 -23.5t-57.5 23.5t-23.5 57.5z" />
    <glyph glyph-name="Yacute" unicode="&#xdd;" horiz-adv-x="744" 
d="M744 1374q-35 -89 -70.5 -180.5t-72.5 -190t-74.5 -205t-77.5 -223.5q1 -148 5 -289.5t12 -285.5h-187q9 144 13.5 285.5t5.5 289.5q-40 117 -78 223.5t-75.5 205t-73.5 190t-71 180.5h186q43 -173 88.5 -325t94.5 -291h4q49 139 95 291t90 325h186v0zM315 1501l131 276
h178l-203 -276h-106z" />
    <glyph glyph-name="Thorn" unicode="&#xde;" horiz-adv-x="838" 
d="M289 1374q-7 -110 -12 -226h157q84 0 150 -28.5t111.5 -83.5t69 -134t23.5 -179q0 -43 -8 -91.5t-26 -95.5t-46 -90.5t-68.5 -76.5t-94 -52.5t-121.5 -19.5h-149q2 -75 4.5 -150t7.5 -147h-187q6 85 9.5 174.5t5.5 178t3 173.5t1 162t-1 162t-3 173t-5.5 177t-9.5 174
h189zM274 1036q-2 -92 -3 -180t-1 -168v-135.5t2 -144.5h152q90 0 140 82.5t50 232.5q0 153 -47 233t-143 80h-150z" />
    <glyph glyph-name="germandbls" unicode="&#xdf;" horiz-adv-x="945" 
d="M493 1290q-45 0 -85.5 -15t-71 -50t-48 -91.5t-17.5 -138.5v-358q0 -152 3.5 -312.5t14.5 -324.5h-188q9 165 13.5 326t4.5 311v353q0 104 26.5 181.5t75.5 129t119.5 77t157.5 25.5q59 0 119.5 -18.5t109 -59t79.5 -105t31 -157.5q0 -63 -17.5 -115.5t-45 -93
t-62.5 -68.5t-69 -42q47 -18 92.5 -47.5t81.5 -74t58 -106t22 -143.5q0 -93 -24.5 -166.5t-70 -123.5t-109.5 -76.5t-143 -26.5q-60 0 -104.5 7.5t-80.5 16.5v163q13 -10 30.5 -22t39 -23t47.5 -18.5t56 -7.5q41 0 75.5 14.5t59 47t38 86t13.5 131.5q0 151 -79 227.5
t-219 76.5v108q74 0 121 25.5t73.5 64t36 84t9.5 85.5q0 70 -15 117t-39.5 75t-55.5 40t-63 12z" />
    <glyph glyph-name="agrave" unicode="&#xe0;" horiz-adv-x="889" 
d="M608 0l5 121q-24 -27 -49 -53.5t-56 -47t-70.5 -33t-93.5 -12.5q-62 0 -115.5 25.5t-93 74.5t-62.5 121.5t-23 167.5q0 121 37 207t109.5 146t180 97t248.5 60q0 121 -12.5 200t-36.5 125.5t-59.5 64.5t-81.5 18q-40 0 -80 -12.5t-79.5 -33.5t-79 -48.5t-77.5 -57.5v194
q42 16 80 29.5t76.5 23.5t77.5 16t83 6q88 0 153.5 -24t109 -76t65 -134t21.5 -197q0 -11 -0.5 -37t-1 -61t-1 -75t-1 -79t-1 -73.5t-0.5 -57.5q0 -53 1 -119.5t3.5 -141.5t6 -157t8.5 -167h-191zM620 273q3 102 5 218.5t2 266.5q-127 -15 -205 -49t-121 -83.5t-58 -112.5
t-15 -137q0 -63 11.5 -114t33.5 -86.5t52 -54.5t68 -19q43 0 75.5 15.5t59 40t48.5 55t44 60.5zM363 1501l-203 276h178l131 -276h-106z" />
    <glyph glyph-name="aacute" unicode="&#xe1;" horiz-adv-x="889" 
d="M608 0l5 121q-24 -27 -49 -53.5t-56 -47t-70.5 -33t-93.5 -12.5q-62 0 -115.5 25.5t-93 74.5t-62.5 121.5t-23 167.5q0 121 37 207t109.5 146t180 97t248.5 60q0 121 -12.5 200t-36.5 125.5t-59.5 64.5t-81.5 18q-40 0 -80 -12.5t-79.5 -33.5t-79 -48.5t-77.5 -57.5v194
q42 16 80 29.5t76.5 23.5t77.5 16t83 6q88 0 153.5 -24t109 -76t65 -134t21.5 -197q0 -11 -0.5 -37t-1 -61t-1 -75t-1 -79t-1 -73.5t-0.5 -57.5q0 -53 1 -119.5t3.5 -141.5t6 -157t8.5 -167h-191zM620 273q3 102 5 218.5t2 266.5q-127 -15 -205 -49t-121 -83.5t-58 -112.5
t-15 -137q0 -63 11.5 -114t33.5 -86.5t52 -54.5t68 -19q43 0 75.5 15.5t59 40t48.5 55t44 60.5zM359 1501l131 276h178l-203 -276h-106z" />
    <glyph glyph-name="acircumflex" unicode="&#xe2;" horiz-adv-x="889" 
d="M608 0l5 121q-24 -27 -49 -53.5t-56 -47t-70.5 -33t-93.5 -12.5q-62 0 -115.5 25.5t-93 74.5t-62.5 121.5t-23 167.5q0 121 37 207t109.5 146t180 97t248.5 60q0 121 -12.5 200t-36.5 125.5t-59.5 64.5t-81.5 18q-40 0 -80 -12.5t-79.5 -33.5t-79 -48.5t-77.5 -57.5v194
q42 16 80 29.5t76.5 23.5t77.5 16t83 6q88 0 153.5 -24t109 -76t65 -134t21.5 -197q0 -11 -0.5 -37t-1 -61t-1 -75t-1 -79t-1 -73.5t-0.5 -57.5q0 -53 1 -119.5t3.5 -141.5t6 -157t8.5 -167h-191zM620 273q3 102 5 218.5t2 266.5q-127 -15 -205 -49t-121 -83.5t-58 -112.5
t-15 -137q0 -63 11.5 -114t33.5 -86.5t52 -54.5t68 -19q43 0 75.5 15.5t59 40t48.5 55t44 60.5zM532 1501l-96 165l-96 -165h-102l125 276h147l125 -276h-103z" />
    <glyph glyph-name="atilde" unicode="&#xe3;" horiz-adv-x="889" 
d="M608 0l5 121q-24 -27 -49 -53.5t-56 -47t-70.5 -33t-93.5 -12.5q-62 0 -115.5 25.5t-93 74.5t-62.5 121.5t-23 167.5q0 121 37 207t109.5 146t180 97t248.5 60q0 121 -12.5 200t-36.5 125.5t-59.5 64.5t-81.5 18q-40 0 -80 -12.5t-79.5 -33.5t-79 -48.5t-77.5 -57.5v194
q42 16 80 29.5t76.5 23.5t77.5 16t83 6q88 0 153.5 -24t109 -76t65 -134t21.5 -197q0 -11 -0.5 -37t-1 -61t-1 -75t-1 -79t-1 -73.5t-0.5 -57.5q0 -53 1 -119.5t3.5 -141.5t6 -157t8.5 -167h-191zM620 273q3 102 5 218.5t2 266.5q-127 -15 -205 -49t-121 -83.5t-58 -112.5
t-15 -137q0 -63 11.5 -114t33.5 -86.5t52 -54.5t68 -19q43 0 75.5 15.5t59 40t48.5 55t44 60.5zM635 1732q0 -26 -2.5 -64.5t-13.5 -73.5t-32.5 -60t-60.5 -25q-32 0 -56.5 17.5t-43.5 38t-34.5 38t-28.5 17.5t-20 -13.5t-9.5 -31.5t-1.5 -36.5t4 -29.5h-100q0 26 2.5 64
t13 73.5t32.5 60.5t60 25q32 0 56.5 -17.5t44 -38t34.5 -38t29 -17.5q13 0 20 12.5t9.5 30t1.5 36.5t-4 32h100v0z" />
    <glyph glyph-name="adieresis" unicode="&#xe4;" horiz-adv-x="889" 
d="M608 0l5 121q-24 -27 -49 -53.5t-56 -47t-70.5 -33t-93.5 -12.5q-62 0 -115.5 25.5t-93 74.5t-62.5 121.5t-23 167.5q0 121 37 207t109.5 146t180 97t248.5 60q0 121 -12.5 200t-36.5 125.5t-59.5 64.5t-81.5 18q-40 0 -80 -12.5t-79.5 -33.5t-79 -48.5t-77.5 -57.5v194
q42 16 80 29.5t76.5 23.5t77.5 16t83 6q88 0 153.5 -24t109 -76t65 -134t21.5 -197q0 -11 -0.5 -37t-1 -61t-1 -75t-1 -79t-1 -73.5t-0.5 -57.5q0 -53 1 -119.5t3.5 -141.5t6 -157t8.5 -167h-191zM620 273q3 102 5 218.5t2 266.5q-127 -15 -205 -49t-121 -83.5t-58 -112.5
t-15 -137q0 -63 11.5 -114t33.5 -86.5t52 -54.5t68 -19q43 0 75.5 15.5t59 40t48.5 55t44 60.5zM236 1602q0 34 23.5 57.5t57.5 23.5t57.5 -23.5t23.5 -57.5t-23.5 -57.5t-57.5 -23.5t-57.5 23.5t-23.5 57.5zM473 1602q0 34 23.5 57.5t57.5 23.5t57.5 -23.5t23.5 -57.5
t-23.5 -57.5t-57.5 -23.5t-57.5 23.5t-23.5 57.5z" />
    <glyph glyph-name="aring" unicode="&#xe5;" horiz-adv-x="889" 
d="M608 0l5 121q-24 -27 -49 -53.5t-56 -47t-70.5 -33t-93.5 -12.5q-62 0 -115.5 25.5t-93 74.5t-62.5 121.5t-23 167.5q0 121 37 207t109.5 146t180 97t248.5 60q0 121 -12.5 200t-36.5 125.5t-59.5 64.5t-81.5 18q-40 0 -80 -12.5t-79.5 -33.5t-79 -48.5t-77.5 -57.5v194
q42 16 80 29.5t76.5 23.5t77.5 16t83 6q88 0 153.5 -24t109 -76t65 -134t21.5 -197q0 -11 -0.5 -37t-1 -61t-1 -75t-1 -79t-1 -73.5t-0.5 -57.5q0 -53 1 -119.5t3.5 -141.5t6 -157t8.5 -167h-191zM620 273q3 102 5 218.5t2 266.5q-127 -15 -205 -49t-121 -83.5t-58 -112.5
t-15 -137q0 -63 11.5 -114t33.5 -86.5t52 -54.5t68 -19q43 0 75.5 15.5t59 40t48.5 55t44 60.5zM262 1646q0 36 13.5 67.5t37.5 55.5t55.5 37.5t67.5 13.5t68 -13.5t55.5 -37.5t37 -55.5t13.5 -67.5t-13.5 -67.5t-37 -55.5t-55.5 -37.5t-68 -13.5t-67.5 13.5t-55.5 37.5
t-37.5 55.5t-13.5 67.5zM356 1646q0 -16 6.5 -30.5t17.5 -25.5t25.5 -17.5t30.5 -6.5t30.5 6.5t25.5 17.5t17.5 25.5t6.5 30.5t-6.5 30.5t-17.5 25.5t-25.5 17.5t-30.5 6.5t-30.5 -6.5t-25.5 -17.5t-17.5 -25.5t-6.5 -30.5z" />
    <glyph glyph-name="ae" unicode="&#xe6;" horiz-adv-x="1446" 
d="M1083 90q44 0 79.5 11t65.5 27.5t55 37t48 39.5v-197q-26 -5 -52.5 -11t-59 -11t-72.5 -9t-92 -4q-199 0 -305 160q-56 -47 -105.5 -78t-96 -49t-92 -25t-92.5 -7q-69 0 -126.5 25.5t-99.5 75t-65 122t-23 167.5q0 121 38 206.5t112 145t183 96t250 59.5
q0 121 -13.5 200.5t-39 126.5t-62.5 65.5t-83 18.5q-40 0 -80 -12.5t-79.5 -33.5t-79 -48.5t-77.5 -57.5v194q42 16 80 29.5t76.5 23.5t77.5 16t83 6q112 0 186.5 -39t115.5 -124q45 78 111 120.5t155 42.5q101 0 173.5 -46.5t119 -135t68 -217.5t21.5 -295v-37h-604
q6 -159 25.5 -269t55.5 -179t90.5 -99.5t129.5 -30.5zM403 95q43 0 85.5 12.5t80.5 33.5t70 47.5t56 54.5q-65 168 -65 439v41t1 40q-125 -16 -204 -51t-123 -85t-60 -114t-16 -137q0 -63 12 -115t34.5 -89t55 -57t73.5 -20zM1214 784q-2 58 -6 118t-12.5 116t-23 105
t-37.5 85t-56 57t-78 21q-60 0 -99.5 -44t-64 -115t-36.5 -161t-17 -182h430z" />
    <glyph glyph-name="ccedilla" unicode="&#xe7;" horiz-adv-x="852" 
d="M242 686q0 -144 23 -254.5t65.5 -185.5t102 -113.5t132.5 -38.5q44 0 78 11t61.5 27.5t51.5 37t47 39.5v-201q-56 -14 -112.5 -22.5t-125.5 -8.5q-107 0 -198 43t-157.5 130.5t-104 221t-37.5 314.5t39.5 314.5t107 221t158 130.5t192.5 43q69 0 125.5 -8.5t112.5 -22.5
v-201q-23 19 -47 39.5t-51.5 37t-61.5 27.5t-78 11q-73 0 -132.5 -38.5t-102 -113.5t-65.5 -185.5t-23 -254.5zM486 30h93l-35 -107q24 -4 45.5 -15t37.5 -28.5t25.5 -41.5t9.5 -54q0 -36 -12 -63t-32.5 -45t-48 -27t-58.5 -9q-34 0 -62.5 6t-48.5 12v110q19 -18 42.5 -30
t52.5 -12q37 0 53 21t16 45q0 76 -121 76z" />
    <glyph glyph-name="egrave" unicode="&#xe8;" horiz-adv-x="910" 
d="M547 90q44 0 79.5 11t65.5 27.5t55 37t48 39.5v-197q-26 -5 -52.5 -11t-59 -11t-72.5 -9t-92 -4q-105 0 -188.5 48.5t-142 140t-89.5 223t-31 297.5q0 160 26 292.5t76.5 226.5t125 146t172.5 52q101 0 173.5 -46.5t119 -135t68 -217.5t21.5 -295v-37h-604
q6 -159 25.5 -269t55.5 -179t90.5 -99.5t129.5 -30.5zM678 784q-2 58 -6 118t-12.5 116t-23 105t-37.5 85t-56 57t-78 21q-60 0 -99.5 -44t-64 -115t-36.5 -161t-17 -182h430zM425 1501l-203 276h178l131 -276h-106z" />
    <glyph glyph-name="eacute" unicode="&#xe9;" horiz-adv-x="910" 
d="M547 90q44 0 79.5 11t65.5 27.5t55 37t48 39.5v-197q-26 -5 -52.5 -11t-59 -11t-72.5 -9t-92 -4q-105 0 -188.5 48.5t-142 140t-89.5 223t-31 297.5q0 160 26 292.5t76.5 226.5t125 146t172.5 52q101 0 173.5 -46.5t119 -135t68 -217.5t21.5 -295v-37h-604
q6 -159 25.5 -269t55.5 -179t90.5 -99.5t129.5 -30.5zM678 784q-2 58 -6 118t-12.5 116t-23 105t-37.5 85t-56 57t-78 21q-60 0 -99.5 -44t-64 -115t-36.5 -161t-17 -182h430zM421 1501l131 276h178l-203 -276h-106z" />
    <glyph glyph-name="ecircumflex" unicode="&#xea;" horiz-adv-x="910" 
d="M547 90q44 0 79.5 11t65.5 27.5t55 37t48 39.5v-197q-26 -5 -52.5 -11t-59 -11t-72.5 -9t-92 -4q-105 0 -188.5 48.5t-142 140t-89.5 223t-31 297.5q0 160 26 292.5t76.5 226.5t125 146t172.5 52q101 0 173.5 -46.5t119 -135t68 -217.5t21.5 -295v-37h-604
q6 -159 25.5 -269t55.5 -179t90.5 -99.5t129.5 -30.5zM678 784q-2 58 -6 118t-12.5 116t-23 105t-37.5 85t-56 57t-78 21q-60 0 -99.5 -44t-64 -115t-36.5 -161t-17 -182h430zM574 1501l-96 165l-96 -165h-102l125 276h147l125 -276h-103z" />
    <glyph glyph-name="edieresis" unicode="&#xeb;" horiz-adv-x="910" 
d="M547 90q44 0 79.5 11t65.5 27.5t55 37t48 39.5v-197q-26 -5 -52.5 -11t-59 -11t-72.5 -9t-92 -4q-105 0 -188.5 48.5t-142 140t-89.5 223t-31 297.5q0 160 26 292.5t76.5 226.5t125 146t172.5 52q101 0 173.5 -46.5t119 -135t68 -217.5t21.5 -295v-37h-604
q6 -159 25.5 -269t55.5 -179t90.5 -99.5t129.5 -30.5zM678 784q-2 58 -6 118t-12.5 116t-23 105t-37.5 85t-56 57t-78 21q-60 0 -99.5 -44t-64 -115t-36.5 -161t-17 -182h430zM278 1602q0 34 23.5 57.5t57.5 23.5t57.5 -23.5t23.5 -57.5t-23.5 -57.5t-57.5 -23.5t-57.5 23.5
t-23.5 57.5zM515 1602q0 34 23.5 57.5t57.5 23.5t57.5 -23.5t23.5 -57.5t-23.5 -57.5t-57.5 -23.5t-57.5 23.5t-23.5 57.5z" />
    <glyph glyph-name="igrave" unicode="&#xec;" horiz-adv-x="401" 
d="M295 1374q-6 -85 -9.5 -174t-5.5 -177t-3 -173t-1 -162t1 -162t3 -173.5t5 -178t8 -174.5h-187q6 85 9.5 174.5t5.5 178t3 173.5t1 162t-1 162t-3 173t-5.5 177t-9.5 174h189zM150 1501l-203 276h178l131 -276h-106z" />
    <glyph glyph-name="iacute" unicode="&#xed;" horiz-adv-x="401" 
d="M295 1374q-6 -85 -9.5 -174t-5.5 -177t-3 -173t-1 -162t1 -162t3 -173.5t5 -178t8 -174.5h-187q6 85 9.5 174.5t5.5 178t3 173.5t1 162t-1 162t-3 173t-5.5 177t-9.5 174h189zM146 1501l131 276h178l-203 -276h-106z" />
    <glyph glyph-name="icircumflex" unicode="&#xee;" horiz-adv-x="401" 
d="M295 1374q-6 -85 -9.5 -174t-5.5 -177t-3 -173t-1 -162t1 -162t3 -173.5t5 -178t8 -174.5h-187q6 85 9.5 174.5t5.5 178t3 173.5t1 162t-1 162t-3 173t-5.5 177t-9.5 174h189zM299 1501l-96 165l-96 -165h-102l125 276h147l125 -276h-103z" />
    <glyph glyph-name="idieresis" unicode="&#xef;" horiz-adv-x="401" 
d="M295 1374q-6 -85 -9.5 -174t-5.5 -177t-3 -173t-1 -162t1 -162t3 -173.5t5 -178t8 -174.5h-187q6 85 9.5 174.5t5.5 178t3 173.5t1 162t-1 162t-3 173t-5.5 177t-9.5 174h189zM3 1602q0 34 23.5 57.5t57.5 23.5t57.5 -23.5t23.5 -57.5t-23.5 -57.5t-57.5 -23.5
t-57.5 23.5t-23.5 57.5zM240 1602q0 34 23.5 57.5t57.5 23.5t57.5 -23.5t23.5 -57.5t-23.5 -57.5t-57.5 -23.5t-57.5 23.5t-23.5 57.5z" />
    <glyph glyph-name="eth" unicode="&#xf0;" horiz-adv-x="964" 
d="M100 0q5 79 8.5 161t6 164t3.5 161.5t1 153.5h-119v123h119q0 71 -1.5 147.5t-3.5 154.5t-5.5 156t-8.5 153h313q107 0 196 -33t152.5 -112.5t99 -211.5t35.5 -329q0 -198 -35.5 -330.5t-99.5 -212t-153 -112.5t-197 -33h-311zM270 640q0 -121 2.5 -256t8.5 -269h134
q43 0 82.5 9.5t73 33.5t61.5 65.5t47.5 105t30 152t10.5 207.5t-10.5 207.5t-30 152t-47.5 104.5t-61.5 65t-73 33.5t-82.5 9.5h-133q-6 -127 -8.5 -254t-3.5 -243h177v-123h-177z" />
    <glyph glyph-name="ntilde" unicode="&#xf1;" horiz-adv-x="948" 
d="M685 658q-2 156 -6.5 272.5t-19 193t-42.5 114.5t-77 38q-26 0 -62.5 -17t-74.5 -45.5t-73 -64.5t-58 -73q-6 -198 -6 -401q0 -93 1 -177t3 -165t6 -162.5t9 -170.5h-185q5 89 8.5 170.5t6 162.5t3.5 165t1 177t-1 180.5t-3.5 173t-6 171t-8.5 174.5h186l-9 -155
q30 36 67 68.5t77 57.5t82 39.5t83 14.5q119 0 184.5 -94.5t65.5 -281.5q0 -46 -0.5 -98.5t-1.5 -103t-1.5 -93.5t-0.5 -70q0 -93 1 -174t3 -159t5.5 -157t8.5 -168h-184q5 89 9 168t7 157t3.5 159t-0.5 174zM674 1732q0 -26 -2.5 -64.5t-13.5 -73.5t-32.5 -60t-60.5 -25
q-32 0 -56.5 17.5t-43.5 38t-34.5 38t-28.5 17.5t-20 -13.5t-9.5 -31.5t-1.5 -36.5t4 -29.5h-100q0 26 2.5 64t13 73.5t32.5 60.5t60 25q32 0 56.5 -17.5t44 -38t34.5 -38t29 -17.5q13 0 20 12.5t9.5 30t1.5 36.5t-4 32h100v0z" />
    <glyph glyph-name="ograve" unicode="&#xf2;" 
d="M934 686q0 -185 -33 -319.5t-91.5 -222t-137.5 -129.5t-170 -42q-92 0 -171 42t-137.5 129.5t-92 222t-33.5 319.5q0 184 33.5 318.5t92 222.5t137.5 130t171 42q91 0 170 -42t137.5 -130t91.5 -222.5t33 -318.5zM762 686q0 154 -20 266t-55 184.5t-82.5 107t-102.5 34.5
q-56 0 -103.5 -34.5t-83 -107t-55.5 -184.5t-20 -266q0 -155 20 -267t55.5 -184t83 -106.5t103.5 -34.5q55 0 102.5 34.5t82.5 106.5t55 184t20 267zM448 1501l-203 276h178l131 -276h-106z" />
    <glyph glyph-name="oacute" unicode="&#xf3;" 
d="M934 686q0 -185 -33 -319.5t-91.5 -222t-137.5 -129.5t-170 -42q-92 0 -171 42t-137.5 129.5t-92 222t-33.5 319.5q0 184 33.5 318.5t92 222.5t137.5 130t171 42q91 0 170 -42t137.5 -130t91.5 -222.5t33 -318.5zM762 686q0 154 -20 266t-55 184.5t-82.5 107t-102.5 34.5
q-56 0 -103.5 -34.5t-83 -107t-55.5 -184.5t-20 -266q0 -155 20 -267t55.5 -184t83 -106.5t103.5 -34.5q55 0 102.5 34.5t82.5 106.5t55 184t20 267zM444 1501l131 276h178l-203 -276h-106z" />
    <glyph glyph-name="ocircumflex" unicode="&#xf4;" 
d="M934 686q0 -185 -33 -319.5t-91.5 -222t-137.5 -129.5t-170 -42q-92 0 -171 42t-137.5 129.5t-92 222t-33.5 319.5q0 184 33.5 318.5t92 222.5t137.5 130t171 42q91 0 170 -42t137.5 -130t91.5 -222.5t33 -318.5zM762 686q0 154 -20 266t-55 184.5t-82.5 107t-102.5 34.5
q-56 0 -103.5 -34.5t-83 -107t-55.5 -184.5t-20 -266q0 -155 20 -267t55.5 -184t83 -106.5t103.5 -34.5q55 0 102.5 34.5t82.5 106.5t55 184t20 267zM597 1501l-96 165l-96 -165h-102l125 276h147l125 -276h-103z" />
    <glyph glyph-name="otilde" unicode="&#xf5;" 
d="M934 686q0 -185 -33 -319.5t-91.5 -222t-137.5 -129.5t-170 -42q-92 0 -171 42t-137.5 129.5t-92 222t-33.5 319.5q0 184 33.5 318.5t92 222.5t137.5 130t171 42q91 0 170 -42t137.5 -130t91.5 -222.5t33 -318.5zM762 686q0 154 -20 266t-55 184.5t-82.5 107t-102.5 34.5
q-56 0 -103.5 -34.5t-83 -107t-55.5 -184.5t-20 -266q0 -155 20 -267t55.5 -184t83 -106.5t103.5 -34.5q55 0 102.5 34.5t82.5 106.5t55 184t20 267zM700 1732q0 -26 -2.5 -64.5t-13.5 -73.5t-32.5 -60t-60.5 -25q-32 0 -56.5 17.5t-43.5 38t-34.5 38t-28.5 17.5t-20 -13.5
t-9.5 -31.5t-1.5 -36.5t4 -29.5h-100q0 26 2.5 64t13 73.5t32.5 60.5t60 25q32 0 56.5 -17.5t44 -38t34.5 -38t29 -17.5q13 0 20 12.5t9.5 30t1.5 36.5t-4 32h100v0z" />
    <glyph glyph-name="odieresis" unicode="&#xf6;" 
d="M934 686q0 -185 -33 -319.5t-91.5 -222t-137.5 -129.5t-170 -42q-92 0 -171 42t-137.5 129.5t-92 222t-33.5 319.5q0 184 33.5 318.5t92 222.5t137.5 130t171 42q91 0 170 -42t137.5 -130t91.5 -222.5t33 -318.5zM762 686q0 154 -20 266t-55 184.5t-82.5 107t-102.5 34.5
q-56 0 -103.5 -34.5t-83 -107t-55.5 -184.5t-20 -266q0 -155 20 -267t55.5 -184t83 -106.5t103.5 -34.5q55 0 102.5 34.5t82.5 106.5t55 184t20 267zM301 1602q0 34 23.5 57.5t57.5 23.5t57.5 -23.5t23.5 -57.5t-23.5 -57.5t-57.5 -23.5t-57.5 23.5t-23.5 57.5zM538 1602
q0 34 23.5 57.5t57.5 23.5t57.5 -23.5t23.5 -57.5t-23.5 -57.5t-57.5 -23.5t-57.5 23.5t-23.5 57.5z" />
    <glyph glyph-name="divide" unicode="&#xf7;" horiz-adv-x="1124" 
d="M150 624v122h824v-122h-824zM466 977q0 40 28 68t68 28t68 -28t28 -68t-28 -68t-68 -28t-68 28t-28 68zM466 393q0 40 28 68t68 28t68 -28t28 -68t-28 -68t-68 -28t-68 28t-28 68z" />
    <glyph glyph-name="oslash" unicode="&#xf8;" 
d="M934 686q0 -185 -33 -319.5t-91.5 -222t-137.5 -129.5t-170 -42q-80 0 -152 32l-33 -107l-113 36l44 143q-83 82 -131.5 233t-48.5 376q0 184 33.5 318.5t92 222.5t137.5 130t171 42q80 0 148 -31l33 106l113 -36l-44 -141q42 -41 75.5 -99.5t57 -134t36.5 -170
t13 -207.5zM762 686q0 145 -17.5 251.5t-48.5 178.5l-305 -981q25 -21 53 -31t58 -10q55 0 102.5 34.5t82.5 106.5t55 184t20 267zM240 686q0 -144 17 -249.5t48 -178.5l305 981q-50 39 -108 39q-56 0 -103.5 -34.5t-83 -107t-55.5 -184.5t-20 -266z" />
    <glyph glyph-name="ugrave" unicode="&#xf9;" horiz-adv-x="948" 
d="M263 716q1 -73 2 -139.5t3 -125t5 -106.5t8 -83q13 -87 50 -125.5t95 -38.5q33 0 68 17t67.5 45t62 64t52.5 74q6 198 6 401q0 93 -1 177t-3.5 165t-6 162.5t-8.5 170.5h185q-5 -89 -8.5 -170.5t-6 -162.5t-3.5 -165t-1 -177t1 -180.5t3.5 -173t6 -171t8.5 -174.5h-186
q2 39 4 77.5t4 76.5q-29 -36 -61.5 -68.5t-70.5 -57t-81.5 -39t-94.5 -14.5q-119 0 -184.5 94.5t-65.5 281.5q0 46 0.5 98.5t1.5 103t1.5 93.5t0.5 70q0 93 -1 174t-3 159t-5.5 157t-8.5 168h184q-5 -89 -9 -168t-6.5 -157t-3.5 -159t0 -174zM419 1501l-203 276h178
l131 -276h-106z" />
    <glyph glyph-name="uacute" unicode="&#xfa;" horiz-adv-x="948" 
d="M263 716q1 -73 2 -139.5t3 -125t5 -106.5t8 -83q13 -87 50 -125.5t95 -38.5q33 0 68 17t67.5 45t62 64t52.5 74q6 198 6 401q0 93 -1 177t-3.5 165t-6 162.5t-8.5 170.5h185q-5 -89 -8.5 -170.5t-6 -162.5t-3.5 -165t-1 -177t1 -180.5t3.5 -173t6 -171t8.5 -174.5h-186
q2 39 4 77.5t4 76.5q-29 -36 -61.5 -68.5t-70.5 -57t-81.5 -39t-94.5 -14.5q-119 0 -184.5 94.5t-65.5 281.5q0 46 0.5 98.5t1.5 103t1.5 93.5t0.5 70q0 93 -1 174t-3 159t-5.5 157t-8.5 168h184q-5 -89 -9 -168t-6.5 -157t-3.5 -159t0 -174zM415 1501l131 276h178
l-203 -276h-106z" />
    <glyph glyph-name="ucircumflex" unicode="&#xfb;" horiz-adv-x="948" 
d="M263 716q1 -73 2 -139.5t3 -125t5 -106.5t8 -83q13 -87 50 -125.5t95 -38.5q33 0 68 17t67.5 45t62 64t52.5 74q6 198 6 401q0 93 -1 177t-3.5 165t-6 162.5t-8.5 170.5h185q-5 -89 -8.5 -170.5t-6 -162.5t-3.5 -165t-1 -177t1 -180.5t3.5 -173t6 -171t8.5 -174.5h-186
q2 39 4 77.5t4 76.5q-29 -36 -61.5 -68.5t-70.5 -57t-81.5 -39t-94.5 -14.5q-119 0 -184.5 94.5t-65.5 281.5q0 46 0.5 98.5t1.5 103t1.5 93.5t0.5 70q0 93 -1 174t-3 159t-5.5 157t-8.5 168h184q-5 -89 -9 -168t-6.5 -157t-3.5 -159t0 -174zM568 1501l-96 165l-96 -165
h-102l125 276h147l125 -276h-103z" />
    <glyph glyph-name="udieresis" unicode="&#xfc;" horiz-adv-x="948" 
d="M263 716q1 -73 2 -139.5t3 -125t5 -106.5t8 -83q13 -87 50 -125.5t95 -38.5q33 0 68 17t67.5 45t62 64t52.5 74q6 198 6 401q0 93 -1 177t-3.5 165t-6 162.5t-8.5 170.5h185q-5 -89 -8.5 -170.5t-6 -162.5t-3.5 -165t-1 -177t1 -180.5t3.5 -173t6 -171t8.5 -174.5h-186
q2 39 4 77.5t4 76.5q-29 -36 -61.5 -68.5t-70.5 -57t-81.5 -39t-94.5 -14.5q-119 0 -184.5 94.5t-65.5 281.5q0 46 0.5 98.5t1.5 103t1.5 93.5t0.5 70q0 93 -1 174t-3 159t-5.5 157t-8.5 168h184q-5 -89 -9 -168t-6.5 -157t-3.5 -159t0 -174zM272 1602q0 34 23.5 57.5
t57.5 23.5t57.5 -23.5t23.5 -57.5t-23.5 -57.5t-57.5 -23.5t-57.5 23.5t-23.5 57.5zM509 1602q0 34 23.5 57.5t57.5 23.5t57.5 -23.5t23.5 -57.5t-23.5 -57.5t-57.5 -23.5t-57.5 23.5t-23.5 57.5z" />
    <glyph glyph-name="yacute" unicode="&#xfd;" horiz-adv-x="821" 
d="M163 -27q-45 0 -80 4.5t-44 6.5v142q5 -2 16.5 -5t27 -6t33.5 -5.5t35 -2.5q58 0 91.5 36.5t60.5 112.5q14 41 29 85.5t31 93.5q-26 77 -56.5 161t-62.5 169.5t-64 170t-62.5 163.5t-58 149l-49.5 126h186q19 -77 48 -173t61.5 -195t64.5 -193.5t58 -169.5q33 109 65 218
t59 206.5t47.5 177t31.5 129.5h186q-33 -98 -77 -228t-93.5 -281.5t-101.5 -318t-101 -335.5q-35 -120 -101.5 -179t-179.5 -59zM369 1501l131 276h178l-203 -276h-106z" />
    <glyph glyph-name="thorn" unicode="&#xfe;" horiz-adv-x="838" 
d="M289 1374q-7 -110 -12 -226h157q84 0 150 -28.5t111.5 -83.5t69 -134t23.5 -179q0 -43 -8 -91.5t-26 -95.5t-46 -90.5t-68.5 -76.5t-94 -52.5t-121.5 -19.5h-149q2 -75 4.5 -150t7.5 -147h-187q6 85 9.5 174.5t5.5 178t3 173.5t1 162t-1 162t-3 173t-5.5 177t-9.5 174
h189zM274 1036q-2 -92 -3 -180t-1 -168v-135.5t2 -144.5h152q90 0 140 82.5t50 232.5q0 153 -47 233t-143 80h-150z" />
    <glyph glyph-name="ydieresis" unicode="&#xff;" horiz-adv-x="821" 
d="M163 -27q-45 0 -80 4.5t-44 6.5v142q5 -2 16.5 -5t27 -6t33.5 -5.5t35 -2.5q58 0 91.5 36.5t60.5 112.5q14 41 29 85.5t31 93.5q-26 77 -56.5 161t-62.5 169.5t-64 170t-62.5 163.5t-58 149l-49.5 126h186q19 -77 48 -173t61.5 -195t64.5 -193.5t58 -169.5q33 109 65 218
t59 206.5t47.5 177t31.5 129.5h186q-33 -98 -77 -228t-93.5 -281.5t-101.5 -318t-101 -335.5q-35 -120 -101.5 -179t-179.5 -59zM216 1602q0 34 23.5 57.5t57.5 23.5t57.5 -23.5t23.5 -57.5t-23.5 -57.5t-57.5 -23.5t-57.5 23.5t-23.5 57.5zM453 1602q0 34 23.5 57.5
t57.5 23.5t57.5 -23.5t23.5 -57.5t-23.5 -57.5t-57.5 -23.5t-57.5 23.5t-23.5 57.5z" />
    <glyph glyph-name="Amacron" unicode="&#x100;" horiz-adv-x="835" 
d="M639 0q-14 96 -29 190l-30 188h-325q-16 -94 -30.5 -188t-28.5 -190h-190q32 121 63 249.5t59 256t53.5 251t47 236t39.5 209.5t31 172h237q13 -75 31 -172t39.5 -209.5t47 -236t53.5 -251t59 -256t63 -249.5h-190zM410 1172q-41 -170 -74 -338t-62 -339h286
q-29 171 -62.5 339t-73.5 338h-14zM247 1532v117h341v-117h-341z" />
    <glyph glyph-name="amacron" unicode="&#x101;" horiz-adv-x="889" 
d="M608 0l5 121q-24 -27 -49 -53.5t-56 -47t-70.5 -33t-93.5 -12.5q-62 0 -115.5 25.5t-93 74.5t-62.5 121.5t-23 167.5q0 121 37 207t109.5 146t180 97t248.5 60q0 121 -12.5 200t-36.5 125.5t-59.5 64.5t-81.5 18q-40 0 -80 -12.5t-79.5 -33.5t-79 -48.5t-77.5 -57.5v194
q42 16 80 29.5t76.5 23.5t77.5 16t83 6q88 0 153.5 -24t109 -76t65 -134t21.5 -197q0 -11 -0.5 -37t-1 -61t-1 -75t-1 -79t-1 -73.5t-0.5 -57.5q0 -53 1 -119.5t3.5 -141.5t6 -157t8.5 -167h-191zM620 273q3 102 5 218.5t2 266.5q-127 -15 -205 -49t-121 -83.5t-58 -112.5
t-15 -137q0 -63 11.5 -114t33.5 -86.5t52 -54.5t68 -19q43 0 75.5 15.5t59 40t48.5 55t44 60.5zM266 1532v117h341v-117h-341z" />
    <glyph glyph-name="Abreve" unicode="&#x102;" horiz-adv-x="835" 
d="M639 0q-14 96 -29 190l-30 188h-325q-16 -94 -30.5 -188t-28.5 -190h-190q32 121 63 249.5t59 256t53.5 251t47 236t39.5 209.5t31 172h237q13 -75 31 -172t39.5 -209.5t47 -236t53.5 -251t59 -256t63 -249.5h-190zM410 1172q-41 -170 -74 -338t-62 -339h286
q-29 171 -62.5 339t-73.5 338h-14zM615 1733q-1 -37 -10.5 -75t-32.5 -68.5t-60.5 -49.5t-94.5 -19q-56 0 -93.5 19t-60.5 49.5t-33.5 68.5t-11.5 75h104q2 -18 6.5 -37t14.5 -34.5t27.5 -25.5t46.5 -10t47 10t28.5 25.5t15.5 34.5t7 37h100v0z" />
    <glyph glyph-name="abreve" unicode="&#x103;" horiz-adv-x="889" 
d="M608 0l5 121q-24 -27 -49 -53.5t-56 -47t-70.5 -33t-93.5 -12.5q-62 0 -115.5 25.5t-93 74.5t-62.5 121.5t-23 167.5q0 121 37 207t109.5 146t180 97t248.5 60q0 121 -12.5 200t-36.5 125.5t-59.5 64.5t-81.5 18q-40 0 -80 -12.5t-79.5 -33.5t-79 -48.5t-77.5 -57.5v194
q42 16 80 29.5t76.5 23.5t77.5 16t83 6q88 0 153.5 -24t109 -76t65 -134t21.5 -197q0 -11 -0.5 -37t-1 -61t-1 -75t-1 -79t-1 -73.5t-0.5 -57.5q0 -53 1 -119.5t3.5 -141.5t6 -157t8.5 -167h-191zM620 273q3 102 5 218.5t2 266.5q-127 -15 -205 -49t-121 -83.5t-58 -112.5
t-15 -137q0 -63 11.5 -114t33.5 -86.5t52 -54.5t68 -19q43 0 75.5 15.5t59 40t48.5 55t44 60.5zM634 1733q-1 -37 -10.5 -75t-32.5 -68.5t-60.5 -49.5t-94.5 -19q-56 0 -93.5 19t-60.5 49.5t-33.5 68.5t-11.5 75h104q2 -18 6.5 -37t14.5 -34.5t27.5 -25.5t46.5 -10t47 10
t28.5 25.5t15.5 34.5t7 37h100v0z" />
    <glyph glyph-name="Aogonek" unicode="&#x104;" horiz-adv-x="835" 
d="M639 0q-14 96 -29 190l-30 188h-325q-16 -94 -30.5 -188t-28.5 -190h-190q32 121 63 249.5t59 256t53.5 251t47 236t39.5 209.5t31 172h237q13 -75 31 -172t39.5 -209.5t47 -236t53.5 -251t59 -256t63 -249.5q-44 -20 -75 -41t-50 -43.5t-27.5 -45.5t-8.5 -46
q0 -37 21 -56t53 -19q26 0 49.5 10.5t37.5 28.5v-110q-20 -8 -44 -13t-58 -5q-29 0 -57.5 8t-51 25.5t-36 45.5t-13.5 68q0 49 31 101t85 92h-46zM410 1172q-41 -170 -74 -338t-62 -339h286q-29 171 -62.5 339t-73.5 338h-14z" />
    <glyph glyph-name="aogonek" unicode="&#x105;" horiz-adv-x="889" 
d="M799 0q-74 -39 -107.5 -84.5t-33.5 -91.5q0 -37 21 -56t53 -19q26 0 49.5 10.5t37.5 28.5v-110q-20 -8 -44 -13t-58 -5q-29 0 -57.5 8t-51 25.5t-36 45.5t-13.5 68q0 56 33.5 106.5t82.5 86.5h-67l5 121q-24 -27 -49 -53.5t-56 -47t-70.5 -33t-93.5 -12.5
q-62 0 -115.5 25.5t-93 74.5t-62.5 121.5t-23 167.5q0 121 37 207t109.5 146t180 97t248.5 60q0 121 -12.5 200t-36.5 125.5t-59.5 64.5t-81.5 18q-40 0 -80 -12.5t-79.5 -33.5t-79 -48.5t-77.5 -57.5v194q42 16 80 29.5t76.5 23.5t77.5 16t83 6q88 0 153.5 -24t109 -76
t65 -134t21.5 -197q0 -11 -0.5 -37t-1 -61t-1 -75t-1 -79t-1 -73.5t-0.5 -57.5q0 -53 1 -119.5t3.5 -141.5t6 -157t8.5 -167zM620 273q3 102 5 218.5t2 266.5q-127 -15 -205 -49t-121 -83.5t-58 -112.5t-15 -137q0 -63 11.5 -114t33.5 -86.5t52 -54.5t68 -19q43 0 75.5 15.5
t59 40t48.5 55t44 60.5z" />
    <glyph glyph-name="Cacute" unicode="&#x106;" horiz-adv-x="852" 
d="M242 686q0 -144 23 -254.5t65.5 -185.5t102 -113.5t132.5 -38.5q44 0 78 11t61.5 27.5t51.5 37t47 39.5v-201q-56 -14 -112.5 -22.5t-125.5 -8.5q-107 0 -198 43t-157.5 130.5t-104 221t-37.5 314.5t39.5 314.5t107 221t158 130.5t192.5 43q69 0 125.5 -8.5t112.5 -22.5
v-201q-23 19 -47 39.5t-51.5 37t-61.5 27.5t-78 11q-73 0 -132.5 -38.5t-102 -113.5t-65.5 -185.5t-23 -254.5zM495 1501l131 276h178l-203 -276h-106z" />
    <glyph glyph-name="cacute" unicode="&#x107;" horiz-adv-x="852" 
d="M242 686q0 -144 23 -254.5t65.5 -185.5t102 -113.5t132.5 -38.5q44 0 78 11t61.5 27.5t51.5 37t47 39.5v-201q-56 -14 -112.5 -22.5t-125.5 -8.5q-107 0 -198 43t-157.5 130.5t-104 221t-37.5 314.5t39.5 314.5t107 221t158 130.5t192.5 43q69 0 125.5 -8.5t112.5 -22.5
v-201q-23 19 -47 39.5t-51.5 37t-61.5 27.5t-78 11q-73 0 -132.5 -38.5t-102 -113.5t-65.5 -185.5t-23 -254.5zM495 1501l131 276h178l-203 -276h-106z" />
    <glyph glyph-name="Ccircumflex" unicode="&#x108;" horiz-adv-x="852" 
d="M242 686q0 -144 23 -254.5t65.5 -185.5t102 -113.5t132.5 -38.5q44 0 78 11t61.5 27.5t51.5 37t47 39.5v-201q-56 -14 -112.5 -22.5t-125.5 -8.5q-107 0 -198 43t-157.5 130.5t-104 221t-37.5 314.5t39.5 314.5t107 221t158 130.5t192.5 43q69 0 125.5 -8.5t112.5 -22.5
v-201q-23 19 -47 39.5t-51.5 37t-61.5 27.5t-78 11q-73 0 -132.5 -38.5t-102 -113.5t-65.5 -185.5t-23 -254.5zM648 1501l-96 165l-96 -165h-102l125 276h147l125 -276h-103z" />
    <glyph glyph-name="ccircumflex" unicode="&#x109;" horiz-adv-x="852" 
d="M242 686q0 -144 23 -254.5t65.5 -185.5t102 -113.5t132.5 -38.5q44 0 78 11t61.5 27.5t51.5 37t47 39.5v-201q-56 -14 -112.5 -22.5t-125.5 -8.5q-107 0 -198 43t-157.5 130.5t-104 221t-37.5 314.5t39.5 314.5t107 221t158 130.5t192.5 43q69 0 125.5 -8.5t112.5 -22.5
v-201q-23 19 -47 39.5t-51.5 37t-61.5 27.5t-78 11q-73 0 -132.5 -38.5t-102 -113.5t-65.5 -185.5t-23 -254.5zM648 1501l-96 165l-96 -165h-102l125 276h147l125 -276h-103z" />
    <glyph glyph-name="Cdotaccent" unicode="&#x10a;" horiz-adv-x="852" 
d="M242 686q0 -144 23 -254.5t65.5 -185.5t102 -113.5t132.5 -38.5q44 0 78 11t61.5 27.5t51.5 37t47 39.5v-201q-56 -14 -112.5 -22.5t-125.5 -8.5q-107 0 -198 43t-157.5 130.5t-104 221t-37.5 314.5t39.5 314.5t107 221t158 130.5t192.5 43q69 0 125.5 -8.5t112.5 -22.5
v-201q-23 19 -47 39.5t-51.5 37t-61.5 27.5t-78 11q-73 0 -132.5 -38.5t-102 -113.5t-65.5 -185.5t-23 -254.5zM462 1602q0 38 26 64t64 26t64 -26t26 -64t-26 -64t-64 -26t-64 26t-26 64z" />
    <glyph glyph-name="cdotaccent" unicode="&#x10b;" horiz-adv-x="852" 
d="M242 686q0 -144 23 -254.5t65.5 -185.5t102 -113.5t132.5 -38.5q44 0 78 11t61.5 27.5t51.5 37t47 39.5v-201q-56 -14 -112.5 -22.5t-125.5 -8.5q-107 0 -198 43t-157.5 130.5t-104 221t-37.5 314.5t39.5 314.5t107 221t158 130.5t192.5 43q69 0 125.5 -8.5t112.5 -22.5
v-201q-23 19 -47 39.5t-51.5 37t-61.5 27.5t-78 11q-73 0 -132.5 -38.5t-102 -113.5t-65.5 -185.5t-23 -254.5zM462 1602q0 38 26 64t64 26t64 -26t26 -64t-26 -64t-64 -26t-64 26t-26 64z" />
    <glyph glyph-name="Ccaron" unicode="&#x10c;" horiz-adv-x="852" 
d="M242 686q0 -144 23 -254.5t65.5 -185.5t102 -113.5t132.5 -38.5q44 0 78 11t61.5 27.5t51.5 37t47 39.5v-201q-56 -14 -112.5 -22.5t-125.5 -8.5q-107 0 -198 43t-157.5 130.5t-104 221t-37.5 314.5t39.5 314.5t107 221t158 130.5t192.5 43q69 0 125.5 -8.5t112.5 -22.5
v-201q-23 19 -47 39.5t-51.5 37t-61.5 27.5t-78 11q-73 0 -132.5 -38.5t-102 -113.5t-65.5 -185.5t-23 -254.5zM751 1777l-125 -276h-147l-125 276h102l96 -165l96 165h103z" />
    <glyph glyph-name="ccaron" unicode="&#x10d;" horiz-adv-x="852" 
d="M242 686q0 -144 23 -254.5t65.5 -185.5t102 -113.5t132.5 -38.5q44 0 78 11t61.5 27.5t51.5 37t47 39.5v-201q-56 -14 -112.5 -22.5t-125.5 -8.5q-107 0 -198 43t-157.5 130.5t-104 221t-37.5 314.5t39.5 314.5t107 221t158 130.5t192.5 43q69 0 125.5 -8.5t112.5 -22.5
v-201q-23 19 -47 39.5t-51.5 37t-61.5 27.5t-78 11q-73 0 -132.5 -38.5t-102 -113.5t-65.5 -185.5t-23 -254.5zM751 1777l-125 -276h-147l-125 276h102l96 -165l96 165h103z" />
    <glyph glyph-name="Dcaron" unicode="&#x10e;" horiz-adv-x="964" 
d="M413 1374q107 0 196 -33t152.5 -112.5t99 -211.5t35.5 -329q0 -198 -35.5 -330.5t-99.5 -212t-153 -112.5t-197 -33h-311q6 85 9.5 174.5t5.5 178t3 173.5t1 162t-1 162t-3 173t-5.5 177t-9.5 174h313zM282 1260q-7 -148 -9.5 -295.5t-2.5 -276.5t2 -277.5t9 -295.5h134
q43 0 82.5 9.5t73 33.5t61.5 65.5t47.5 105t30 152t10.5 207.5t-10.5 207.5t-30 152t-47.5 104.5t-61.5 65t-73 33.5t-82.5 9.5h-133zM623 1777l-125 -276h-147l-125 276h102l96 -165l96 165h103z" />
    <glyph glyph-name="dcaron" unicode="&#x10f;" horiz-adv-x="964" 
d="M413 1374q107 0 196 -33t152.5 -112.5t99 -211.5t35.5 -329q0 -198 -35.5 -330.5t-99.5 -212t-153 -112.5t-197 -33h-311q6 85 9.5 174.5t5.5 178t3 173.5t1 162t-1 162t-3 173t-5.5 177t-9.5 174h313zM282 1260q-7 -148 -9.5 -295.5t-2.5 -276.5t2 -277.5t9 -295.5h134
q43 0 82.5 9.5t73 33.5t61.5 65.5t47.5 105t30 152t10.5 207.5t-10.5 207.5t-30 152t-47.5 104.5t-61.5 65t-73 33.5t-82.5 9.5h-133zM623 1777l-125 -276h-147l-125 276h102l96 -165l96 165h103z" />
    <glyph glyph-name="Dcroat" unicode="&#x110;" horiz-adv-x="964" 
d="M100 0q5 79 8.5 161t6 164t3.5 161.5t1 153.5h-119v123h119q0 71 -1.5 147.5t-3.5 154.5t-5.5 156t-8.5 153h313q107 0 196 -33t152.5 -112.5t99 -211.5t35.5 -329q0 -198 -35.5 -330.5t-99.5 -212t-153 -112.5t-197 -33h-311zM270 640q0 -121 2.5 -256t8.5 -269h134
q43 0 82.5 9.5t73 33.5t61.5 65.5t47.5 105t30 152t10.5 207.5t-10.5 207.5t-30 152t-47.5 104.5t-61.5 65t-73 33.5t-82.5 9.5h-133q-6 -127 -8.5 -254t-3.5 -243h177v-123h-177z" />
    <glyph glyph-name="dcroat" unicode="&#x111;" horiz-adv-x="964" 
d="M100 0q5 79 8.5 161t6 164t3.5 161.5t1 153.5h-119v123h119q0 71 -1.5 147.5t-3.5 154.5t-5.5 156t-8.5 153h313q107 0 196 -33t152.5 -112.5t99 -211.5t35.5 -329q0 -198 -35.5 -330.5t-99.5 -212t-153 -112.5t-197 -33h-311zM270 640q0 -121 2.5 -256t8.5 -269h134
q43 0 82.5 9.5t73 33.5t61.5 65.5t47.5 105t30 152t10.5 207.5t-10.5 207.5t-30 152t-47.5 104.5t-61.5 65t-73 33.5t-82.5 9.5h-133q-6 -127 -8.5 -254t-3.5 -243h177v-123h-177z" />
    <glyph glyph-name="Emacron" unicode="&#x112;" horiz-adv-x="764" 
d="M680 1374v-117h-398q-6 -115 -8.5 -229.5t-3.5 -222.5h381v-117h-381q0 -129 2 -276.5t9 -294.5h405v-117h-586q6 85 9.5 174.5t5.5 178t3 173.5t1 162t-1 162t-3 173t-5.5 177t-9.5 174h580zM221 1532v117h341v-117h-341z" />
    <glyph glyph-name="emacron" unicode="&#x113;" horiz-adv-x="910" 
d="M547 90q44 0 79.5 11t65.5 27.5t55 37t48 39.5v-197q-26 -5 -52.5 -11t-59 -11t-72.5 -9t-92 -4q-105 0 -188.5 48.5t-142 140t-89.5 223t-31 297.5q0 160 26 292.5t76.5 226.5t125 146t172.5 52q101 0 173.5 -46.5t119 -135t68 -217.5t21.5 -295v-37h-604
q6 -159 25.5 -269t55.5 -179t90.5 -99.5t129.5 -30.5zM678 784q-2 58 -6 118t-12.5 116t-23 105t-37.5 85t-56 57t-78 21q-60 0 -99.5 -44t-64 -115t-36.5 -161t-17 -182h430zM308 1532v117h341v-117h-341z" />
    <glyph glyph-name="Ebreve" unicode="&#x114;" horiz-adv-x="764" 
d="M680 1374v-117h-398q-6 -115 -8.5 -229.5t-3.5 -222.5h381v-117h-381q0 -129 2 -276.5t9 -294.5h405v-117h-586q6 85 9.5 174.5t5.5 178t3 173.5t1 162t-1 162t-3 173t-5.5 177t-9.5 174h580zM589 1733q-1 -37 -10.5 -75t-32.5 -68.5t-60.5 -49.5t-94.5 -19
q-56 0 -93.5 19t-60.5 49.5t-33.5 68.5t-11.5 75h104q2 -18 6.5 -37t14.5 -34.5t27.5 -25.5t46.5 -10t47 10t28.5 25.5t15.5 34.5t7 37h100v0z" />
    <glyph glyph-name="ebreve" unicode="&#x115;" horiz-adv-x="910" 
d="M547 90q44 0 79.5 11t65.5 27.5t55 37t48 39.5v-197q-26 -5 -52.5 -11t-59 -11t-72.5 -9t-92 -4q-105 0 -188.5 48.5t-142 140t-89.5 223t-31 297.5q0 160 26 292.5t76.5 226.5t125 146t172.5 52q101 0 173.5 -46.5t119 -135t68 -217.5t21.5 -295v-37h-604
q6 -159 25.5 -269t55.5 -179t90.5 -99.5t129.5 -30.5zM678 784q-2 58 -6 118t-12.5 116t-23 105t-37.5 85t-56 57t-78 21q-60 0 -99.5 -44t-64 -115t-36.5 -161t-17 -182h430zM676 1733q-1 -37 -10.5 -75t-32.5 -68.5t-60.5 -49.5t-94.5 -19q-56 0 -93.5 19t-60.5 49.5
t-33.5 68.5t-11.5 75h104q2 -18 6.5 -37t14.5 -34.5t27.5 -25.5t46.5 -10t47 10t28.5 25.5t15.5 34.5t7 37h100v0z" />
    <glyph glyph-name="Edotaccent" unicode="&#x116;" horiz-adv-x="764" 
d="M680 1374v-117h-398q-6 -115 -8.5 -229.5t-3.5 -222.5h381v-117h-381q0 -129 2 -276.5t9 -294.5h405v-117h-586q6 85 9.5 174.5t5.5 178t3 173.5t1 162t-1 162t-3 173t-5.5 177t-9.5 174h580zM301 1602q0 38 26 64t64 26t64 -26t26 -64t-26 -64t-64 -26t-64 26t-26 64z
" />
    <glyph glyph-name="edotaccent" unicode="&#x117;" horiz-adv-x="910" 
d="M547 90q44 0 79.5 11t65.5 27.5t55 37t48 39.5v-197q-26 -5 -52.5 -11t-59 -11t-72.5 -9t-92 -4q-105 0 -188.5 48.5t-142 140t-89.5 223t-31 297.5q0 160 26 292.5t76.5 226.5t125 146t172.5 52q101 0 173.5 -46.5t119 -135t68 -217.5t21.5 -295v-37h-604
q6 -159 25.5 -269t55.5 -179t90.5 -99.5t129.5 -30.5zM678 784q-2 58 -6 118t-12.5 116t-23 105t-37.5 85t-56 57t-78 21q-60 0 -99.5 -44t-64 -115t-36.5 -161t-17 -182h430zM388 1602q0 38 26 64t64 26t64 -26t26 -64t-26 -64t-64 -26t-64 26t-26 64z" />
    <glyph glyph-name="Eogonek" unicode="&#x118;" horiz-adv-x="764" 
d="M680 1374v-117h-398q-6 -115 -8.5 -229.5t-3.5 -222.5h381v-117h-381q0 -129 2 -276.5t9 -294.5h405v-117q-86 -33 -123.5 -81.5t-37.5 -94.5q0 -37 21 -56t53 -19q26 0 49.5 10.5t37.5 28.5v-110q-20 -8 -44 -13t-58 -5q-29 0 -57.5 8t-51 25.5t-36 45.5t-13.5 68
q0 24 7.5 50t22.5 51.5t36.5 49t49.5 42.5h-442q6 85 9.5 174.5t5.5 178t3 173.5t1 162t-1 162t-3 173t-5.5 177t-9.5 174h580z" />
    <glyph glyph-name="eogonek" unicode="&#x119;" horiz-adv-x="910" 
d="M547 90q44 0 79.5 11t65.5 27.5t55 37t48 39.5v-197q-26 -10 -49 -31t-40 -47t-27 -54t-10 -52q0 -37 21 -56t53 -19q26 0 49.5 10.5t37.5 28.5v-110q-20 -8 -44 -13t-58 -5q-29 0 -57.5 8t-51 25.5t-36 45.5t-13.5 68q0 22 7.5 45.5t20.5 47.5t31 46t38 41
q-25 -6 -67 -10t-81 -4q-105 0 -188.5 48.5t-142 140t-89.5 223t-31 297.5q0 160 26 292.5t76.5 226.5t125 146t172.5 52q101 0 173.5 -46.5t119 -135t68 -217.5t21.5 -295v-37h-604q6 -159 25.5 -269t55.5 -179t90.5 -99.5t129.5 -30.5zM678 784q-2 58 -6 118t-12.5 116
t-23 105t-37.5 85t-56 57t-78 21q-60 0 -99.5 -44t-64 -115t-36.5 -161t-17 -182h430z" />
    <glyph glyph-name="Ecaron" unicode="&#x11a;" horiz-adv-x="764" 
d="M680 1374v-117h-398q-6 -115 -8.5 -229.5t-3.5 -222.5h381v-117h-381q0 -129 2 -276.5t9 -294.5h405v-117h-586q6 85 9.5 174.5t5.5 178t3 173.5t1 162t-1 162t-3 173t-5.5 177t-9.5 174h580zM590 1777l-125 -276h-147l-125 276h102l96 -165l96 165h103z" />
    <glyph glyph-name="ecaron" unicode="&#x11b;" horiz-adv-x="910" 
d="M547 90q44 0 79.5 11t65.5 27.5t55 37t48 39.5v-197q-26 -5 -52.5 -11t-59 -11t-72.5 -9t-92 -4q-105 0 -188.5 48.5t-142 140t-89.5 223t-31 297.5q0 160 26 292.5t76.5 226.5t125 146t172.5 52q101 0 173.5 -46.5t119 -135t68 -217.5t21.5 -295v-37h-604
q6 -159 25.5 -269t55.5 -179t90.5 -99.5t129.5 -30.5zM678 784q-2 58 -6 118t-12.5 116t-23 105t-37.5 85t-56 57t-78 21q-60 0 -99.5 -44t-64 -115t-36.5 -161t-17 -182h430zM677 1777l-125 -276h-147l-125 276h102l96 -165l96 165h103z" />
    <glyph glyph-name="Gcircumflex" unicode="&#x11c;" horiz-adv-x="946" 
d="M494 676h364q-4 -82 -5.5 -161t-1.5 -151t0.5 -131.5t2.5 -102.5q2 -51 4 -91q-51 -26 -124 -44t-177 -18t-193 43t-155 130.5t-103.5 221t-37.5 314.5t39.5 314.5t107.5 221t158.5 130.5t192.5 43q42 0 76 -3.5t63.5 -9.5t55.5 -15t51 -19v-202q-65 73 -122.5 102.5
t-124.5 29.5q-77 0 -137 -42.5t-101.5 -120.5t-63 -186.5t-21.5 -240.5q0 -128 20 -236.5t60 -188t100.5 -124.5t141.5 -45q35 0 61.5 5.5t52.5 19.5q1 22 2 51q1 25 2 60.5t1 82.5q0 51 -1.5 113t-5.5 134h-182v116zM661 1501l-96 165l-96 -165h-102l125 276h147l125 -276
h-103z" />
    <glyph glyph-name="gcircumflex" unicode="&#x11d;" horiz-adv-x="946" 
d="M494 676h364q-4 -82 -5.5 -161t-1.5 -151t0.5 -131.5t2.5 -102.5q2 -51 4 -91q-51 -26 -124 -44t-177 -18t-193 43t-155 130.5t-103.5 221t-37.5 314.5t39.5 314.5t107.5 221t158.5 130.5t192.5 43q42 0 76 -3.5t63.5 -9.5t55.5 -15t51 -19v-202q-65 73 -122.5 102.5
t-124.5 29.5q-77 0 -137 -42.5t-101.5 -120.5t-63 -186.5t-21.5 -240.5q0 -128 20 -236.5t60 -188t100.5 -124.5t141.5 -45q35 0 61.5 5.5t52.5 19.5q1 22 2 51q1 25 2 60.5t1 82.5q0 51 -1.5 113t-5.5 134h-182v116zM661 1501l-96 165l-96 -165h-102l125 276h147l125 -276
h-103z" />
    <glyph glyph-name="Gbreve" unicode="&#x11e;" horiz-adv-x="946" 
d="M494 676h364q-4 -82 -5.5 -161t-1.5 -151t0.5 -131.5t2.5 -102.5q2 -51 4 -91q-51 -26 -124 -44t-177 -18t-193 43t-155 130.5t-103.5 221t-37.5 314.5t39.5 314.5t107.5 221t158.5 130.5t192.5 43q42 0 76 -3.5t63.5 -9.5t55.5 -15t51 -19v-202q-65 73 -122.5 102.5
t-124.5 29.5q-77 0 -137 -42.5t-101.5 -120.5t-63 -186.5t-21.5 -240.5q0 -128 20 -236.5t60 -188t100.5 -124.5t141.5 -45q35 0 61.5 5.5t52.5 19.5q1 22 2 51q1 25 2 60.5t1 82.5q0 51 -1.5 113t-5.5 134h-182v116zM763 1733q-1 -37 -10.5 -75t-32.5 -68.5t-60.5 -49.5
t-94.5 -19q-56 0 -93.5 19t-60.5 49.5t-33.5 68.5t-11.5 75h104q2 -18 6.5 -37t14.5 -34.5t27.5 -25.5t46.5 -10t47 10t28.5 25.5t15.5 34.5t7 37h100v0z" />
    <glyph glyph-name="gbreve" unicode="&#x11f;" horiz-adv-x="946" 
d="M494 676h364q-4 -82 -5.5 -161t-1.5 -151t0.5 -131.5t2.5 -102.5q2 -51 4 -91q-51 -26 -124 -44t-177 -18t-193 43t-155 130.5t-103.5 221t-37.5 314.5t39.5 314.5t107.5 221t158.5 130.5t192.5 43q42 0 76 -3.5t63.5 -9.5t55.5 -15t51 -19v-202q-65 73 -122.5 102.5
t-124.5 29.5q-77 0 -137 -42.5t-101.5 -120.5t-63 -186.5t-21.5 -240.5q0 -128 20 -236.5t60 -188t100.5 -124.5t141.5 -45q35 0 61.5 5.5t52.5 19.5q1 22 2 51q1 25 2 60.5t1 82.5q0 51 -1.5 113t-5.5 134h-182v116zM763 1733q-1 -37 -10.5 -75t-32.5 -68.5t-60.5 -49.5
t-94.5 -19q-56 0 -93.5 19t-60.5 49.5t-33.5 68.5t-11.5 75h104q2 -18 6.5 -37t14.5 -34.5t27.5 -25.5t46.5 -10t47 10t28.5 25.5t15.5 34.5t7 37h100v0z" />
    <glyph glyph-name="Gdotaccent" unicode="&#x120;" horiz-adv-x="946" 
d="M494 676h364q-4 -82 -5.5 -161t-1.5 -151t0.5 -131.5t2.5 -102.5q2 -51 4 -91q-51 -26 -124 -44t-177 -18t-193 43t-155 130.5t-103.5 221t-37.5 314.5t39.5 314.5t107.5 221t158.5 130.5t192.5 43q42 0 76 -3.5t63.5 -9.5t55.5 -15t51 -19v-202q-65 73 -122.5 102.5
t-124.5 29.5q-77 0 -137 -42.5t-101.5 -120.5t-63 -186.5t-21.5 -240.5q0 -128 20 -236.5t60 -188t100.5 -124.5t141.5 -45q35 0 61.5 5.5t52.5 19.5q1 22 2 51q1 25 2 60.5t1 82.5q0 51 -1.5 113t-5.5 134h-182v116zM475 1602q0 38 26 64t64 26t64 -26t26 -64t-26 -64
t-64 -26t-64 26t-26 64z" />
    <glyph glyph-name="gdotaccent" unicode="&#x121;" horiz-adv-x="946" 
d="M494 676h364q-4 -82 -5.5 -161t-1.5 -151t0.5 -131.5t2.5 -102.5q2 -51 4 -91q-51 -26 -124 -44t-177 -18t-193 43t-155 130.5t-103.5 221t-37.5 314.5t39.5 314.5t107.5 221t158.5 130.5t192.5 43q42 0 76 -3.5t63.5 -9.5t55.5 -15t51 -19v-202q-65 73 -122.5 102.5
t-124.5 29.5q-77 0 -137 -42.5t-101.5 -120.5t-63 -186.5t-21.5 -240.5q0 -128 20 -236.5t60 -188t100.5 -124.5t141.5 -45q35 0 61.5 5.5t52.5 19.5q1 22 2 51q1 25 2 60.5t1 82.5q0 51 -1.5 113t-5.5 134h-182v116zM475 1602q0 38 26 64t64 26t64 -26t26 -64t-26 -64
t-64 -26t-64 26t-26 64z" />
    <glyph glyph-name="Gcommaaccent" unicode="&#x122;" horiz-adv-x="946" 
d="M494 676h364q-4 -82 -5.5 -161t-1.5 -151t0.5 -131.5t2.5 -102.5q2 -51 4 -91q-51 -26 -124 -44t-177 -18t-193 43t-155 130.5t-103.5 221t-37.5 314.5t39.5 314.5t107.5 221t158.5 130.5t192.5 43q42 0 76 -3.5t63.5 -9.5t55.5 -15t51 -19v-202q-65 73 -122.5 102.5
t-124.5 29.5q-77 0 -137 -42.5t-101.5 -120.5t-63 -186.5t-21.5 -240.5q0 -128 20 -236.5t60 -188t100.5 -124.5t141.5 -45q35 0 61.5 5.5t52.5 19.5q1 22 2 51q1 25 2 60.5t1 82.5q0 51 -1.5 113t-5.5 134h-182v116zM458 -214q0 37 24 62t66 25q41 0 70 -28.5t29 -82.5
q0 -27 -7.5 -50t-18.5 -43t-24.5 -36.5t-26.5 -29.5h-107v5q12 7 26.5 19t28 26t23.5 28.5t13 27.5q-48 0 -72 20t-24 57z" />
    <glyph glyph-name="gcommaaccent" unicode="&#x123;" horiz-adv-x="946" 
d="M494 676h364q-4 -82 -5.5 -161t-1.5 -151t0.5 -131.5t2.5 -102.5q2 -51 4 -91q-51 -26 -124 -44t-177 -18t-193 43t-155 130.5t-103.5 221t-37.5 314.5t39.5 314.5t107.5 221t158.5 130.5t192.5 43q42 0 76 -3.5t63.5 -9.5t55.5 -15t51 -19v-202q-65 73 -122.5 102.5
t-124.5 29.5q-77 0 -137 -42.5t-101.5 -120.5t-63 -186.5t-21.5 -240.5q0 -128 20 -236.5t60 -188t100.5 -124.5t141.5 -45q35 0 61.5 5.5t52.5 19.5q1 22 2 51q1 25 2 60.5t1 82.5q0 51 -1.5 113t-5.5 134h-182v116zM458 -214q0 37 24 62t66 25q41 0 70 -28.5t29 -82.5
q0 -27 -7.5 -50t-18.5 -43t-24.5 -36.5t-26.5 -29.5h-107v5q12 7 26.5 19t28 26t23.5 28.5t13 27.5q-48 0 -72 20t-24 57z" />
    <glyph glyph-name="Hcircumflex" unicode="&#x124;" horiz-adv-x="953" 
d="M852 1374q-5 -85 -8.5 -174t-5.5 -177t-3 -173t-1 -162t1 -162t2.5 -173.5t4.5 -178t8 -174.5h-186q5 85 8.5 174.5t5.5 178t3 173.5t1 162h-412q0 -77 1 -162t3 -173.5t5 -178t8 -174.5h-187q6 85 9.5 174.5t5.5 178t3 173.5t1 162t-1 162t-3 173t-5.5 177t-9.5 174h189
q-10 -140 -13.5 -286.5t-5.5 -282.5h411q-1 136 -5 282.5t-12 286.5h188zM574 1501l-96 165l-96 -165h-102l125 276h147l125 -276h-103z" />
    <glyph glyph-name="hcircumflex" unicode="&#x125;" horiz-adv-x="953" 
d="M852 1374q-5 -85 -8.5 -174t-5.5 -177t-3 -173t-1 -162t1 -162t2.5 -173.5t4.5 -178t8 -174.5h-186q5 85 8.5 174.5t5.5 178t3 173.5t1 162h-412q0 -77 1 -162t3 -173.5t5 -178t8 -174.5h-187q6 85 9.5 174.5t5.5 178t3 173.5t1 162t-1 162t-3 173t-5.5 177t-9.5 174h189
q-10 -140 -13.5 -286.5t-5.5 -282.5h411q-1 136 -5 282.5t-12 286.5h188zM574 1501l-96 165l-96 -165h-102l125 276h147l125 -276h-103z" />
    <glyph glyph-name="Hbar" unicode="&#x126;" horiz-adv-x="953" 
d="M836 958q-1 -72 -1.5 -139.5t-0.5 -130.5q0 -77 1 -162t2.5 -173.5t4.5 -178t8 -174.5h-186q5 85 8.5 174.5t5.5 178t3 173.5t1 162h-412q0 -77 1 -162t3 -173.5t5 -178t8 -174.5h-187q6 85 9.5 174.5t5.5 178t3 173.5t1 162q0 127 -3 270h-104v117h101q-2 75 -5 150.5
t-8 148.5h189q-5 -73 -8.5 -148.5t-5.5 -150.5h402q-2 75 -5.5 150.5t-7.5 148.5h188q-5 -73 -8 -148.5t-5 -150.5h102v-117h-105zM679 958h-407q-1 -39 -1.5 -77.5t-0.5 -75.5h411z" />
    <glyph glyph-name="hbar" unicode="&#x127;" horiz-adv-x="953" 
d="M836 958q-1 -72 -1.5 -139.5t-0.5 -130.5q0 -77 1 -162t2.5 -173.5t4.5 -178t8 -174.5h-186q5 85 8.5 174.5t5.5 178t3 173.5t1 162h-412q0 -77 1 -162t3 -173.5t5 -178t8 -174.5h-187q6 85 9.5 174.5t5.5 178t3 173.5t1 162q0 127 -3 270h-104v117h101q-2 75 -5 150.5
t-8 148.5h189q-5 -73 -8.5 -148.5t-5.5 -150.5h402q-2 75 -5.5 150.5t-7.5 148.5h188q-5 -73 -8 -148.5t-5 -150.5h102v-117h-105zM679 958h-407q-1 -39 -1.5 -77.5t-0.5 -75.5h411z" />
    <glyph glyph-name="Itilde" unicode="&#x128;" horiz-adv-x="401" 
d="M295 1374q-6 -85 -9.5 -174t-5.5 -177t-3 -173t-1 -162t1 -162t3 -173.5t5 -178t8 -174.5h-187q6 85 9.5 174.5t5.5 178t3 173.5t1 162t-1 162t-3 173t-5.5 177t-9.5 174h189zM402 1732q0 -26 -2.5 -64.5t-13.5 -73.5t-32.5 -60t-60.5 -25q-32 0 -56.5 17.5t-43.5 38
t-34.5 38t-28.5 17.5t-20 -13.5t-9.5 -31.5t-1.5 -36.5t4 -29.5h-100q0 26 2.5 64t13 73.5t32.5 60.5t60 25q32 0 56.5 -17.5t44 -38t34.5 -38t29 -17.5q13 0 20 12.5t9.5 30t1.5 36.5t-4 32h100v0z" />
    <glyph glyph-name="itilde" unicode="&#x129;" horiz-adv-x="401" 
d="M295 1374q-6 -85 -9.5 -174t-5.5 -177t-3 -173t-1 -162t1 -162t3 -173.5t5 -178t8 -174.5h-187q6 85 9.5 174.5t5.5 178t3 173.5t1 162t-1 162t-3 173t-5.5 177t-9.5 174h189zM402 1732q0 -26 -2.5 -64.5t-13.5 -73.5t-32.5 -60t-60.5 -25q-32 0 -56.5 17.5t-43.5 38
t-34.5 38t-28.5 17.5t-20 -13.5t-9.5 -31.5t-1.5 -36.5t4 -29.5h-100q0 26 2.5 64t13 73.5t32.5 60.5t60 25q32 0 56.5 -17.5t44 -38t34.5 -38t29 -17.5q13 0 20 12.5t9.5 30t1.5 36.5t-4 32h100v0z" />
    <glyph glyph-name="Imacron" unicode="&#x12a;" horiz-adv-x="401" 
d="M295 1374q-6 -85 -9.5 -174t-5.5 -177t-3 -173t-1 -162t1 -162t3 -173.5t5 -178t8 -174.5h-187q6 85 9.5 174.5t5.5 178t3 173.5t1 162t-1 162t-3 173t-5.5 177t-9.5 174h189zM33 1532v117h341v-117h-341z" />
    <glyph glyph-name="imacron" unicode="&#x12b;" horiz-adv-x="401" 
d="M295 1374q-6 -85 -9.5 -174t-5.5 -177t-3 -173t-1 -162t1 -162t3 -173.5t5 -178t8 -174.5h-187q6 85 9.5 174.5t5.5 178t3 173.5t1 162t-1 162t-3 173t-5.5 177t-9.5 174h189zM33 1532v117h341v-117h-341z" />
    <glyph glyph-name="Ibreve" unicode="&#x12c;" horiz-adv-x="401" 
d="M295 1374q-6 -85 -9.5 -174t-5.5 -177t-3 -173t-1 -162t1 -162t3 -173.5t5 -178t8 -174.5h-187q6 85 9.5 174.5t5.5 178t3 173.5t1 162t-1 162t-3 173t-5.5 177t-9.5 174h189zM401 1733q-1 -37 -10.5 -75t-32.5 -68.5t-60.5 -49.5t-94.5 -19q-56 0 -93.5 19t-60.5 49.5
t-33.5 68.5t-11.5 75h104q2 -18 6.5 -37t14.5 -34.5t27.5 -25.5t46.5 -10t47 10t28.5 25.5t15.5 34.5t7 37h100v0z" />
    <glyph glyph-name="Iogonek" unicode="&#x12e;" horiz-adv-x="401" 
d="M295 1374q-6 -85 -9.5 -174t-5.5 -177t-3 -173t-1 -162t1 -162t3 -173.5t5 -178t8 -174.5h-47q-15 -20 -29.5 -41t-26 -43.5t-19 -45.5t-7.5 -46q0 -37 21 -56t53 -19q26 0 49.5 10.5t37.5 28.5v-110q-20 -8 -44 -13t-58 -5q-29 0 -57.5 8t-51 25.5t-36 45.5t-13.5 68
q0 49 28 99t68 94h-55q6 85 9.5 174.5t5.5 178t3 173.5t1 162t-1 162t-3 173t-5.5 177t-9.5 174h189z" />
    <glyph glyph-name="iogonek" unicode="&#x12f;" horiz-adv-x="401" 
d="M295 1374q-6 -85 -9.5 -174t-5.5 -177t-3 -173t-1 -162t1 -162t3 -173.5t5 -178t8 -174.5h-47q-15 -20 -29.5 -41t-26 -43.5t-19 -45.5t-7.5 -46q0 -37 21 -56t53 -19q26 0 49.5 10.5t37.5 28.5v-110q-20 -8 -44 -13t-58 -5q-29 0 -57.5 8t-51 25.5t-36 45.5t-13.5 68
q0 49 28 99t68 94h-55q6 85 9.5 174.5t5.5 178t3 173.5t1 162t-1 162t-3 173t-5.5 177t-9.5 174h189z" />
    <glyph glyph-name="Idotaccent" unicode="&#x130;" horiz-adv-x="401" 
d="M295 1374q-6 -85 -9.5 -174t-5.5 -177t-3 -173t-1 -162t1 -162t3 -173.5t5 -178t8 -174.5h-187q6 85 9.5 174.5t5.5 178t3 173.5t1 162t-1 162t-3 173t-5.5 177t-9.5 174h189zM113 1602q0 38 26 64t64 26t64 -26t26 -64t-26 -64t-64 -26t-64 26t-26 64z" />
    <glyph glyph-name="dotlessi" unicode="&#x131;" horiz-adv-x="401" 
d="M295 1374q-6 -85 -9.5 -174t-5.5 -177t-3 -173t-1 -162t1 -162t3 -173.5t5 -178t8 -174.5h-187q6 85 9.5 174.5t5.5 178t3 173.5t1 162t-1 162t-3 173t-5.5 177t-9.5 174h189z" />
    <glyph glyph-name="IJ" unicode="&#x132;" horiz-adv-x="972" 
d="M295 1374q-6 -85 -9.5 -174t-5.5 -177t-3 -173t-1 -162t1 -162t3 -173.5t5 -178t8 -174.5h-187q6 85 9.5 174.5t5.5 178t3 173.5t1 162t-1 162t-3 173t-5.5 177t-9.5 174h189zM421 121q10 -3 38 -11t71 -8q31 0 59 9t50 33t38 66t24 108q8 64 8.5 168t0.5 244
q0 152 -3.5 316t-14.5 328h188q-5 -82 -8 -161t-5.5 -151t-3.5 -134.5t-1 -112.5q0 -56 0.5 -116t1.5 -114t1.5 -96.5t0.5 -63.5q0 -107 -21 -191t-64 -142t-109.5 -88t-157.5 -30q-29 0 -56.5 4t-36.5 6v137z" />
    <glyph glyph-name="ij" unicode="&#x133;" horiz-adv-x="972" 
d="M295 1374q-6 -85 -9.5 -174t-5.5 -177t-3 -173t-1 -162t1 -162t3 -173.5t5 -178t8 -174.5h-187q6 85 9.5 174.5t5.5 178t3 173.5t1 162t-1 162t-3 173t-5.5 177t-9.5 174h189zM421 121q10 -3 38 -11t71 -8q31 0 59 9t50 33t38 66t24 108q8 64 8.5 168t0.5 244
q0 152 -3.5 316t-14.5 328h188q-5 -82 -8 -161t-5.5 -151t-3.5 -134.5t-1 -112.5q0 -56 0.5 -116t1.5 -114t1.5 -96.5t0.5 -63.5q0 -107 -21 -191t-64 -142t-109.5 -88t-157.5 -30q-29 0 -56.5 4t-36.5 6v137z" />
    <glyph glyph-name="Jcircumflex" unicode="&#x134;" horiz-adv-x="571" 
d="M20 121q10 -3 38 -11t71 -8q31 0 59 9t50 33t38 66t24 108q8 64 8.5 168t0.5 244q0 152 -3.5 316t-14.5 328h188q-5 -82 -8 -161t-5.5 -151t-3.5 -134.5t-1 -112.5q0 -56 0.5 -116t1.5 -114t1.5 -96.5t0.5 -63.5q0 -107 -21 -191t-64 -142t-109.5 -88t-157.5 -30
q-29 0 -56.5 4t-36.5 6v137zM483 1501l-96 165l-96 -165h-102l125 276h147l125 -276h-103z" />
    <glyph glyph-name="jcircumflex" unicode="&#x135;" horiz-adv-x="571" 
d="M20 121q10 -3 38 -11t71 -8q31 0 59 9t50 33t38 66t24 108q8 64 8.5 168t0.5 244q0 152 -3.5 316t-14.5 328h188q-5 -82 -8 -161t-5.5 -151t-3.5 -134.5t-1 -112.5q0 -56 0.5 -116t1.5 -114t1.5 -96.5t0.5 -63.5q0 -107 -21 -191t-64 -142t-109.5 -88t-157.5 -30
q-29 0 -56.5 4t-36.5 6v137zM483 1501l-96 165l-96 -165h-102l125 276h147l125 -276h-103z" />
    <glyph glyph-name="Kcommaaccent" unicode="&#x136;" horiz-adv-x="834" 
d="M289 1374q-9 -139 -13 -284t-6 -280q36 53 75 117t80.5 136t83.5 150.5t83 160.5h208q-44 -60 -95 -133t-103 -150t-103 -155t-96 -147q42 -98 90 -197.5t103.5 -198.5t119.5 -197.5t138 -195.5h-211q-25 38 -54 88.5t-59.5 108t-61.5 119.5t-60.5 122.5t-55.5 117
t-47 103.5l-35 -59q0 -69 1.5 -144.5t3.5 -153.5t5 -155t7 -147h-187q6 85 9.5 174.5t5.5 178t3 173.5t1 162t-1 162t-3 173t-5.5 177t-9.5 174h189zM352 -214q0 37 24 62t66 25q41 0 70 -28.5t29 -82.5q0 -27 -7.5 -50t-18.5 -43t-24.5 -36.5t-26.5 -29.5h-107v5
q12 7 26.5 19t28 26t23.5 28.5t13 27.5q-48 0 -72 20t-24 57z" />
    <glyph glyph-name="kcommaaccent" unicode="&#x137;" horiz-adv-x="834" 
d="M289 1374q-9 -139 -13 -284t-6 -280q36 53 75 117t80.5 136t83.5 150.5t83 160.5h208q-44 -60 -95 -133t-103 -150t-103 -155t-96 -147q42 -98 90 -197.5t103.5 -198.5t119.5 -197.5t138 -195.5h-211q-25 38 -54 88.5t-59.5 108t-61.5 119.5t-60.5 122.5t-55.5 117
t-47 103.5l-35 -59q0 -69 1.5 -144.5t3.5 -153.5t5 -155t7 -147h-187q6 85 9.5 174.5t5.5 178t3 173.5t1 162t-1 162t-3 173t-5.5 177t-9.5 174h189zM352 -214q0 37 24 62t66 25q41 0 70 -28.5t29 -82.5q0 -27 -7.5 -50t-18.5 -43t-24.5 -36.5t-26.5 -29.5h-107v5
q12 7 26.5 19t28 26t23.5 28.5t13 27.5q-48 0 -72 20t-24 57z" />
    <glyph glyph-name="kgreenlandic" unicode="&#x138;" horiz-adv-x="834" 
d="M289 1374q-9 -139 -13 -284t-6 -280q36 53 75 117t80.5 136t83.5 150.5t83 160.5h208q-44 -60 -95 -133t-103 -150t-103 -155t-96 -147q42 -98 90 -197.5t103.5 -198.5t119.5 -197.5t138 -195.5h-211q-25 38 -54 88.5t-59.5 108t-61.5 119.5t-60.5 122.5t-55.5 117
t-47 103.5l-35 -59q0 -69 1.5 -144.5t3.5 -153.5t5 -155t7 -147h-187q6 85 9.5 174.5t5.5 178t3 173.5t1 162t-1 162t-3 173t-5.5 177t-9.5 174h189z" />
    <glyph glyph-name="Lacute" unicode="&#x139;" horiz-adv-x="696" 
d="M289 1374q-6 -85 -9.5 -174t-5.5 -177t-3 -173t-1 -162q0 -129 2 -276.5t9 -294.5h405v-117h-586q6 85 9.5 174.5t5.5 178t3 173.5t1 162t-1 162t-3 173t-5.5 177t-9.5 174h189zM138 1501l131 276h178l-203 -276h-106z" />
    <glyph glyph-name="lacute" unicode="&#x13a;" horiz-adv-x="696" 
d="M289 1374q-6 -85 -9.5 -174t-5.5 -177t-3 -173t-1 -162q0 -129 2 -276.5t9 -294.5h405v-117h-586q6 85 9.5 174.5t5.5 178t3 173.5t1 162t-1 162t-3 173t-5.5 177t-9.5 174h189zM138 1501l131 276h178l-203 -276h-106z" />
    <glyph glyph-name="Lcommaaccent" unicode="&#x13b;" horiz-adv-x="696" 
d="M289 1374q-6 -85 -9.5 -174t-5.5 -177t-3 -173t-1 -162q0 -129 2 -276.5t9 -294.5h405v-117h-586q6 85 9.5 174.5t5.5 178t3 173.5t1 162t-1 162t-3 173t-5.5 177t-9.5 174h189zM283 -214q0 37 24 62t66 25q41 0 70 -28.5t29 -82.5q0 -27 -7.5 -50t-18.5 -43t-24.5 -36.5
t-26.5 -29.5h-107v5q12 7 26.5 19t28 26t23.5 28.5t13 27.5q-48 0 -72 20t-24 57z" />
    <glyph glyph-name="lcommaaccent" unicode="&#x13c;" horiz-adv-x="696" 
d="M289 1374q-6 -85 -9.5 -174t-5.5 -177t-3 -173t-1 -162q0 -129 2 -276.5t9 -294.5h405v-117h-586q6 85 9.5 174.5t5.5 178t3 173.5t1 162t-1 162t-3 173t-5.5 177t-9.5 174h189zM283 -214q0 37 24 62t66 25q41 0 70 -28.5t29 -82.5q0 -27 -7.5 -50t-18.5 -43t-24.5 -36.5
t-26.5 -29.5h-107v5q12 7 26.5 19t28 26t23.5 28.5t13 27.5q-48 0 -72 20t-24 57z" />
    <glyph glyph-name="Lcaron" unicode="&#x13d;" horiz-adv-x="696" 
d="M289 1374q-6 -85 -9.5 -174t-5.5 -177t-3 -173t-1 -162q0 -129 2 -276.5t9 -294.5h405v-117h-586q6 85 9.5 174.5t5.5 178t3 173.5t1 162t-1 162t-3 173t-5.5 177t-9.5 174h189zM445 1312q0 37 28 62t70 25q41 0 71 -28.5t30 -82.5q0 -32 -13.5 -64t-33.5 -60t-44 -50
t-46 -34l-50 49q12 5 25 15t24 22.5t18 28t7 30.5q-37 5 -61.5 27.5t-24.5 59.5z" />
    <glyph glyph-name="lcaron" unicode="&#x13e;" horiz-adv-x="696" 
d="M289 1374q-6 -85 -9.5 -174t-5.5 -177t-3 -173t-1 -162q0 -129 2 -276.5t9 -294.5h405v-117h-586q6 85 9.5 174.5t5.5 178t3 173.5t1 162t-1 162t-3 173t-5.5 177t-9.5 174h189zM445 1312q0 37 28 62t70 25q41 0 71 -28.5t30 -82.5q0 -32 -13.5 -64t-33.5 -60t-44 -50
t-46 -34l-50 49q12 5 25 15t24 22.5t18 28t7 30.5q-37 5 -61.5 27.5t-24.5 59.5z" />
    <glyph glyph-name="Ldot" unicode="&#x13f;" horiz-adv-x="696" 
d="M289 1374q-6 -85 -9.5 -174t-5.5 -177t-3 -173t-1 -162q0 -129 2 -276.5t9 -294.5h405v-117h-586q6 85 9.5 174.5t5.5 178t3 173.5t1 162t-1 162t-3 173t-5.5 177t-9.5 174h189zM438 686q0 21 8 40t22 33.5t33 22.5t41 8q21 0 40 -8t33.5 -22.5t22.5 -33.5t8 -40
q0 -22 -8 -41t-22.5 -33t-33.5 -22t-40 -8q-44 0 -74 30t-30 74z" />
    <glyph glyph-name="ldotaccent" unicode="&#x140;" horiz-adv-x="696" 
d="M289 1374q-6 -85 -9.5 -174t-5.5 -177t-3 -173t-1 -162q0 -129 2 -276.5t9 -294.5h405v-117h-586q6 85 9.5 174.5t5.5 178t3 173.5t1 162t-1 162t-3 173t-5.5 177t-9.5 174h189zM438 686q0 21 8 40t22 33.5t33 22.5t41 8q21 0 40 -8t33.5 -22.5t22.5 -33.5t8 -40
q0 -22 -8 -41t-22.5 -33t-33.5 -22t-40 -8q-44 0 -74 30t-30 74z" />
    <glyph glyph-name="Lslash" unicode="&#x141;" horiz-adv-x="696" 
d="M289 1374q-10 -150 -14 -307t-5 -300l150 60l43 -106l-193 -77q0 -122 2 -257t9 -270h405v-117h-586q9 143 13 294t6 289l-97 -38l-43 106l140 56q0 75 -1 158t-3.5 168.5t-6 171.5t-8.5 169h189z" />
    <glyph glyph-name="lslash" unicode="&#x142;" horiz-adv-x="696" 
d="M289 1374q-10 -150 -14 -307t-5 -300l150 60l43 -106l-193 -77q0 -122 2 -257t9 -270h405v-117h-586q9 143 13 294t6 289l-97 -38l-43 106l140 56q0 75 -1 158t-3.5 168.5t-6 171.5t-8.5 169h189z" />
    <glyph glyph-name="Nacute" unicode="&#x143;" horiz-adv-x="951" 
d="M851 1374q-6 -85 -9.5 -174t-5.5 -177t-3 -173t-1 -162t1 -162t3 -173.5t5 -178t8 -174.5h-185q-51 147 -100 280t-97.5 257.5t-96.5 243t-96 235.5h-7q-2 -87 -1.5 -169.5t0.5 -158.5q0 -77 1 -162t3 -173.5t5 -178t8 -174.5h-183q6 85 9.5 174.5t5.5 178t3 173.5t1 162
t-1 162t-3 173t-5.5 177t-9.5 174h187q101 -294 198 -555t194 -495h7q1 44 1 92t-0.5 95.5t-1 92.5t-0.5 84q0 77 -1 162t-3 173t-5.5 177t-9.5 174h185zM426 1501l131 276h178l-203 -276h-106z" />
    <glyph glyph-name="nacute" unicode="&#x144;" horiz-adv-x="948" 
d="M685 658q-2 156 -6.5 272.5t-19 193t-42.5 114.5t-77 38q-26 0 -62.5 -17t-74.5 -45.5t-73 -64.5t-58 -73q-6 -198 -6 -401q0 -93 1 -177t3 -165t6 -162.5t9 -170.5h-185q5 89 8.5 170.5t6 162.5t3.5 165t1 177t-1 180.5t-3.5 173t-6 171t-8.5 174.5h186l-9 -155
q30 36 67 68.5t77 57.5t82 39.5t83 14.5q119 0 184.5 -94.5t65.5 -281.5q0 -46 -0.5 -98.5t-1.5 -103t-1.5 -93.5t-0.5 -70q0 -93 1 -174t3 -159t5.5 -157t8.5 -168h-184q5 89 9 168t7 157t3.5 159t-0.5 174zM418 1501l131 276h178l-203 -276h-106z" />
    <glyph glyph-name="Ncommaaccent" unicode="&#x145;" horiz-adv-x="951" 
d="M851 1374q-6 -85 -9.5 -174t-5.5 -177t-3 -173t-1 -162t1 -162t3 -173.5t5 -178t8 -174.5h-185q-51 147 -100 280t-97.5 257.5t-96.5 243t-96 235.5h-7q-2 -87 -1.5 -169.5t0.5 -158.5q0 -77 1 -162t3 -173.5t5 -178t8 -174.5h-183q6 85 9.5 174.5t5.5 178t3 173.5t1 162
t-1 162t-3 173t-5.5 177t-9.5 174h187q101 -294 198 -555t194 -495h7q1 44 1 92t-0.5 95.5t-1 92.5t-0.5 84q0 77 -1 162t-3 173t-5.5 177t-9.5 174h185zM396 -214q0 37 24 62t66 25q41 0 70 -28.5t29 -82.5q0 -27 -7.5 -50t-18.5 -43t-24.5 -36.5t-26.5 -29.5h-107v5
q12 7 26.5 19t28 26t23.5 28.5t13 27.5q-48 0 -72 20t-24 57z" />
    <glyph glyph-name="ncommaaccent" unicode="&#x146;" horiz-adv-x="948" 
d="M685 658q-2 156 -6.5 272.5t-19 193t-42.5 114.5t-77 38q-26 0 -62.5 -17t-74.5 -45.5t-73 -64.5t-58 -73q-6 -198 -6 -401q0 -93 1 -177t3 -165t6 -162.5t9 -170.5h-185q5 89 8.5 170.5t6 162.5t3.5 165t1 177t-1 180.5t-3.5 173t-6 171t-8.5 174.5h186l-9 -155
q30 36 67 68.5t77 57.5t82 39.5t83 14.5q119 0 184.5 -94.5t65.5 -281.5q0 -46 -0.5 -98.5t-1.5 -103t-1.5 -93.5t-0.5 -70q0 -93 1 -174t3 -159t5.5 -157t8.5 -168h-184q5 89 9 168t7 157t3.5 159t-0.5 174zM379 -214q0 37 24 62t66 25q41 0 70 -28.5t29 -82.5
q0 -27 -7.5 -50t-18.5 -43t-24.5 -36.5t-26.5 -29.5h-107v5q12 7 26.5 19t28 26t23.5 28.5t13 27.5q-48 0 -72 20t-24 57z" />
    <glyph glyph-name="Ncaron" unicode="&#x147;" horiz-adv-x="951" 
d="M851 1374q-6 -85 -9.5 -174t-5.5 -177t-3 -173t-1 -162t1 -162t3 -173.5t5 -178t8 -174.5h-185q-51 147 -100 280t-97.5 257.5t-96.5 243t-96 235.5h-7q-2 -87 -1.5 -169.5t0.5 -158.5q0 -77 1 -162t3 -173.5t5 -178t8 -174.5h-183q6 85 9.5 174.5t5.5 178t3 173.5t1 162
t-1 162t-3 173t-5.5 177t-9.5 174h187q101 -294 198 -555t194 -495h7q1 44 1 92t-0.5 95.5t-1 92.5t-0.5 84q0 77 -1 162t-3 173t-5.5 177t-9.5 174h185zM682 1777l-125 -276h-147l-125 276h102l96 -165l96 165h103z" />
    <glyph glyph-name="ncaron" unicode="&#x148;" horiz-adv-x="948" 
d="M685 658q-2 156 -6.5 272.5t-19 193t-42.5 114.5t-77 38q-26 0 -62.5 -17t-74.5 -45.5t-73 -64.5t-58 -73q-6 -198 -6 -401q0 -93 1 -177t3 -165t6 -162.5t9 -170.5h-185q5 89 8.5 170.5t6 162.5t3.5 165t1 177t-1 180.5t-3.5 173t-6 171t-8.5 174.5h186l-9 -155
q30 36 67 68.5t77 57.5t82 39.5t83 14.5q119 0 184.5 -94.5t65.5 -281.5q0 -46 -0.5 -98.5t-1.5 -103t-1.5 -93.5t-0.5 -70q0 -93 1 -174t3 -159t5.5 -157t8.5 -168h-184q5 89 9 168t7 157t3.5 159t-0.5 174zM674 1777l-125 -276h-147l-125 276h102l96 -165l96 165h103z" />
    <glyph glyph-name="napostrophe" unicode="&#x149;" horiz-adv-x="1147" 
d="M884 658q-2 156 -6.5 272.5t-19 193t-42.5 114.5t-77 38q-26 0 -62.5 -17t-74.5 -45.5t-73 -64.5t-58 -73q-6 -198 -6 -401q0 -93 1 -177t3 -165t6 -162.5t9 -170.5h-185q5 89 8.5 170.5t6 162.5t3.5 165t1 177t-1 180.5t-3.5 173t-6 171t-8.5 174.5h186l-9 -155
q30 36 67 68.5t77 57.5t82 39.5t83 14.5q119 0 184.5 -94.5t65.5 -281.5q0 -46 -0.5 -98.5t-1.5 -103t-1.5 -93.5t-0.5 -70q0 -93 1 -174t3 -159t5.5 -157t8.5 -168h-184q5 89 9 168t7 157t3.5 159t-0.5 174zM1 1312q0 37 28 62t70 25q41 0 71 -28.5t30 -82.5
q0 -32 -13.5 -64t-33.5 -60t-44 -50t-46 -34l-50 49q12 5 25 15t24 22.5t18 28t7 30.5q-37 5 -61.5 27.5t-24.5 59.5z" />
    <glyph glyph-name="Eng" unicode="&#x14a;" horiz-adv-x="943" 
d="M442 121q10 -3 38 -11t71 -8q35 0 56.5 13t35.5 48q-46 124 -93 233.5t-94 212t-93 202.5t-89 205h-7q-2 -87 -1.5 -169.5t0.5 -158.5q0 -77 1 -162t3 -173.5t5 -178t8 -174.5h-183q6 85 9.5 174.5t5.5 178t3 173.5t1 162t-1 162t-3 173t-5.5 177t-9.5 174h187
q48 -140 98 -265t100 -241.5t99 -227t96 -221.5q2 61 1.5 138.5t-0.5 172.5q0 152 -3.5 316t-14.5 328h188q-5 -82 -8 -161t-5.5 -151t-3.5 -134.5t-1 -112.5q0 -56 0.5 -116t0.5 -114t0.5 -96.5t0.5 -63.5q0 -107 -12.5 -191t-46 -142t-92 -88t-149.5 -30q-29 0 -56.5 4
t-36.5 6v137z" />
    <glyph glyph-name="eng" unicode="&#x14b;" horiz-adv-x="944" 
d="M694 658q0 156 -5.5 272.5t-22 193t-47 114.5t-79.5 38q-26 0 -62.5 -17t-74.5 -45.5t-73 -64.5t-58 -73q-6 -198 -6 -401q0 -93 1 -177t3 -165t6 -162.5t9 -170.5h-185q5 89 8.5 170.5t6 162.5t3.5 165t1 177t-1 180.5t-3.5 173t-6 171t-8.5 174.5h186l-9 -155
q30 36 67 68.5t77 57.5t82 39.5t83 14.5q59 0 103.5 -20.5t75.5 -65.5t48.5 -116.5t22.5 -173.5q5 -93 6.5 -166t1.5 -127q0 -112 -2.5 -187.5t-5.5 -117.5q-8 -115 -29 -200t-61.5 -140.5t-103 -83t-153.5 -27.5q-29 0 -56.5 4t-36.5 6v137q10 -3 38 -11t71 -8q31 0 59 9
t50 33t38 66t24 108q4 32 7 63t5.5 69t4 88t1.5 120z" />
    <glyph glyph-name="Omacron" unicode="&#x14c;" 
d="M934 686q0 -185 -33 -319.5t-91.5 -222t-137.5 -129.5t-170 -42q-92 0 -171 42t-137.5 129.5t-92 222t-33.5 319.5q0 184 33.5 318.5t92 222.5t137.5 130t171 42q91 0 170 -42t137.5 -130t91.5 -222.5t33 -318.5zM762 686q0 154 -20 266t-55 184.5t-82.5 107t-102.5 34.5
q-56 0 -103.5 -34.5t-83 -107t-55.5 -184.5t-20 -266q0 -155 20 -267t55.5 -184t83 -106.5t103.5 -34.5q55 0 102.5 34.5t82.5 106.5t55 184t20 267zM331 1532v117h341v-117h-341z" />
    <glyph glyph-name="omacron" unicode="&#x14d;" 
d="M934 686q0 -185 -33 -319.5t-91.5 -222t-137.5 -129.5t-170 -42q-92 0 -171 42t-137.5 129.5t-92 222t-33.5 319.5q0 184 33.5 318.5t92 222.5t137.5 130t171 42q91 0 170 -42t137.5 -130t91.5 -222.5t33 -318.5zM762 686q0 154 -20 266t-55 184.5t-82.5 107t-102.5 34.5
q-56 0 -103.5 -34.5t-83 -107t-55.5 -184.5t-20 -266q0 -155 20 -267t55.5 -184t83 -106.5t103.5 -34.5q55 0 102.5 34.5t82.5 106.5t55 184t20 267zM331 1532v117h341v-117h-341z" />
    <glyph glyph-name="Obreve" unicode="&#x14e;" 
d="M934 686q0 -185 -33 -319.5t-91.5 -222t-137.5 -129.5t-170 -42q-92 0 -171 42t-137.5 129.5t-92 222t-33.5 319.5q0 184 33.5 318.5t92 222.5t137.5 130t171 42q91 0 170 -42t137.5 -130t91.5 -222.5t33 -318.5zM762 686q0 154 -20 266t-55 184.5t-82.5 107t-102.5 34.5
q-56 0 -103.5 -34.5t-83 -107t-55.5 -184.5t-20 -266q0 -155 20 -267t55.5 -184t83 -106.5t103.5 -34.5q55 0 102.5 34.5t82.5 106.5t55 184t20 267zM699 1733q-1 -37 -10.5 -75t-32.5 -68.5t-60.5 -49.5t-94.5 -19q-56 0 -93.5 19t-60.5 49.5t-33.5 68.5t-11.5 75h104
q2 -18 6.5 -37t14.5 -34.5t27.5 -25.5t46.5 -10t47 10t28.5 25.5t15.5 34.5t7 37h100v0z" />
    <glyph glyph-name="obreve" unicode="&#x14f;" 
d="M934 686q0 -185 -33 -319.5t-91.5 -222t-137.5 -129.5t-170 -42q-92 0 -171 42t-137.5 129.5t-92 222t-33.5 319.5q0 184 33.5 318.5t92 222.5t137.5 130t171 42q91 0 170 -42t137.5 -130t91.5 -222.5t33 -318.5zM762 686q0 154 -20 266t-55 184.5t-82.5 107t-102.5 34.5
q-56 0 -103.5 -34.5t-83 -107t-55.5 -184.5t-20 -266q0 -155 20 -267t55.5 -184t83 -106.5t103.5 -34.5q55 0 102.5 34.5t82.5 106.5t55 184t20 267zM699 1733q-1 -37 -10.5 -75t-32.5 -68.5t-60.5 -49.5t-94.5 -19q-56 0 -93.5 19t-60.5 49.5t-33.5 68.5t-11.5 75h104
q2 -18 6.5 -37t14.5 -34.5t27.5 -25.5t46.5 -10t47 10t28.5 25.5t15.5 34.5t7 37h100v0z" />
    <glyph glyph-name="Ohungarumlaut" unicode="&#x150;" 
d="M934 686q0 -185 -33 -319.5t-91.5 -222t-137.5 -129.5t-170 -42q-92 0 -171 42t-137.5 129.5t-92 222t-33.5 319.5q0 184 33.5 318.5t92 222.5t137.5 130t171 42q91 0 170 -42t137.5 -130t91.5 -222.5t33 -318.5zM762 686q0 154 -20 266t-55 184.5t-82.5 107t-102.5 34.5
q-56 0 -103.5 -34.5t-83 -107t-55.5 -184.5t-20 -266q0 -155 20 -267t55.5 -184t83 -106.5t103.5 -34.5q55 0 102.5 34.5t82.5 106.5t55 184t20 267zM626 1501h-102l115 276h131zM465 1501h-95l74 276h129z" />
    <glyph glyph-name="ohungarumlaut" unicode="&#x151;" 
d="M934 686q0 -185 -33 -319.5t-91.5 -222t-137.5 -129.5t-170 -42q-92 0 -171 42t-137.5 129.5t-92 222t-33.5 319.5q0 184 33.5 318.5t92 222.5t137.5 130t171 42q91 0 170 -42t137.5 -130t91.5 -222.5t33 -318.5zM762 686q0 154 -20 266t-55 184.5t-82.5 107t-102.5 34.5
q-56 0 -103.5 -34.5t-83 -107t-55.5 -184.5t-20 -266q0 -155 20 -267t55.5 -184t83 -106.5t103.5 -34.5q55 0 102.5 34.5t82.5 106.5t55 184t20 267zM626 1501h-102l115 276h131zM465 1501h-95l74 276h129z" />
    <glyph glyph-name="OE" unicode="&#x152;" horiz-adv-x="1327" 
d="M1243 1374v-117h-398q-6 -115 -8.5 -229.5t-3.5 -222.5h381v-117h-381q0 -129 2 -276.5t9 -294.5h405v-117h-586q0 7 0.5 14t0.5 15q-66 -56 -162 -56q-92 0 -171 42t-137.5 129.5t-92 222t-33.5 319.5q0 184 33.5 318.5t92 222.5t137.5 130t171 42q49 0 88.5 -14
t74.5 -43q-1 8 -1.5 16t-0.5 16h580zM502 94q100 0 170 85q6 133 8 263.5t2 245.5q0 114 -2 243.5t-7 260.5q-37 45 -78.5 65.5t-92.5 20.5q-56 0 -103.5 -34.5t-83 -107t-55.5 -184.5t-20 -266q0 -155 20 -267t55.5 -184t83 -106.5t103.5 -34.5z" />
    <glyph glyph-name="oe" unicode="&#x153;" horiz-adv-x="1597" 
d="M1234 90q44 0 79.5 11t65.5 27.5t55 37t48 39.5v-197q-26 -5 -52.5 -11t-59 -11t-72.5 -9t-92 -4q-121 0 -210 63t-146 182q-58 -126 -148.5 -185.5t-199.5 -59.5q-92 0 -171 42t-137.5 129.5t-92 222t-33.5 319.5q0 184 33.5 318.5t92 222.5t137.5 130t171 42
q107 0 195.5 -57t147.5 -177q48 111 125 172.5t185 61.5q101 0 173.5 -46.5t119 -135t68 -217.5t21.5 -295v-37h-604v-13q6 -155 26 -263t56.5 -175t90.5 -97t128 -30zM762 686q0 154 -20 266t-55 184.5t-82.5 107t-102.5 34.5q-56 0 -103.5 -34.5t-83 -107t-55.5 -184.5
t-20 -266q0 -155 20 -267t55.5 -184t83 -106.5t103.5 -34.5q55 0 102.5 34.5t82.5 106.5t55 184t20 267zM1365 784q-2 58 -6 118t-12.5 116t-23 105t-37.5 85t-56 57t-78 21q-60 0 -99.5 -44t-64 -115t-36.5 -161t-17 -182h430z" />
    <glyph glyph-name="Racute" unicode="&#x154;" horiz-adv-x="846" 
d="M426 1374q169 0 261.5 -99t92.5 -300q0 -130 -45 -214.5t-133 -129.5q22 -86 55 -187q29 -87 72.5 -201t106.5 -243h-211q-45 149 -74.5 259.5t-46.5 185.5q-20 87 -31 149h-203q0 -70 1.5 -144.5t3.5 -150t5 -151.5t7 -148h-187q6 85 9.5 174.5t5.5 178t3 173.5t1 162
t-1 162t-3 173t-5.5 177t-9.5 174h326zM282 1262q-7 -143 -9.5 -286.5t-2.5 -270.5h146q45 0 80 14t59.5 46t37.5 83.5t13 126.5q0 152 -47.5 219.5t-142.5 67.5h-134zM341 1501l131 276h178l-203 -276h-106z" />
    <glyph glyph-name="racute" unicode="&#x155;" horiz-adv-x="666" 
d="M646 1215q-132 0 -230 -37t-144 -112q-6 -194 -6 -391q0 -93 1 -177t3 -165t6 -162.5t9 -170.5h-185q5 89 8.5 170.5t6 162.5t3.5 165t1 177t-1 180.5t-3.5 173t-6 171t-8.5 174.5h186q-3 -47 -5.5 -84t-4.5 -83q32 37 78.5 72t97.5 61.5t102 42.5t92 16v-184zM330 1501
l131 276h178l-203 -276h-106z" />
    <glyph glyph-name="Rcommaaccent" unicode="&#x156;" horiz-adv-x="846" 
d="M426 1374q169 0 261.5 -99t92.5 -300q0 -130 -45 -214.5t-133 -129.5q22 -86 55 -187q29 -87 72.5 -201t106.5 -243h-211q-45 149 -74.5 259.5t-46.5 185.5q-20 87 -31 149h-203q0 -70 1.5 -144.5t3.5 -150t5 -151.5t7 -148h-187q6 85 9.5 174.5t5.5 178t3 173.5t1 162
t-1 162t-3 173t-5.5 177t-9.5 174h326zM282 1262q-7 -143 -9.5 -286.5t-2.5 -270.5h146q45 0 80 14t59.5 46t37.5 83.5t13 126.5q0 152 -47.5 219.5t-142.5 67.5h-134zM358 -214q0 37 24 62t66 25q41 0 70 -28.5t29 -82.5q0 -27 -7.5 -50t-18.5 -43t-24.5 -36.5t-26.5 -29.5
h-107v5q12 7 26.5 19t28 26t23.5 28.5t13 27.5q-48 0 -72 20t-24 57z" />
    <glyph glyph-name="rcommaaccent" unicode="&#x157;" horiz-adv-x="666" 
d="M646 1215q-132 0 -230 -37t-144 -112q-6 -194 -6 -391q0 -93 1 -177t3 -165t6 -162.5t9 -170.5h-185q5 89 8.5 170.5t6 162.5t3.5 165t1 177t-1 180.5t-3.5 173t-6 171t-8.5 174.5h186q-3 -47 -5.5 -84t-4.5 -83q32 37 78.5 72t97.5 61.5t102 42.5t92 16v-184zM101 -214
q0 37 24 62t66 25q41 0 70 -28.5t29 -82.5q0 -27 -7.5 -50t-18.5 -43t-24.5 -36.5t-26.5 -29.5h-107v5q12 7 26.5 19t28 26t23.5 28.5t13 27.5q-48 0 -72 20t-24 57z" />
    <glyph glyph-name="Rcaron" unicode="&#x158;" horiz-adv-x="846" 
d="M426 1374q169 0 261.5 -99t92.5 -300q0 -130 -45 -214.5t-133 -129.5q22 -86 55 -187q29 -87 72.5 -201t106.5 -243h-211q-45 149 -74.5 259.5t-46.5 185.5q-20 87 -31 149h-203q0 -70 1.5 -144.5t3.5 -150t5 -151.5t7 -148h-187q6 85 9.5 174.5t5.5 178t3 173.5t1 162
t-1 162t-3 173t-5.5 177t-9.5 174h326zM282 1262q-7 -143 -9.5 -286.5t-2.5 -270.5h146q45 0 80 14t59.5 46t37.5 83.5t13 126.5q0 152 -47.5 219.5t-142.5 67.5h-134zM597 1777l-125 -276h-147l-125 276h102l96 -165l96 165h103z" />
    <glyph glyph-name="rcaron" unicode="&#x159;" horiz-adv-x="666" 
d="M646 1215q-132 0 -230 -37t-144 -112q-6 -194 -6 -391q0 -93 1 -177t3 -165t6 -162.5t9 -170.5h-185q5 89 8.5 170.5t6 162.5t3.5 165t1 177t-1 180.5t-3.5 173t-6 171t-8.5 174.5h186q-3 -47 -5.5 -84t-4.5 -83q32 37 78.5 72t97.5 61.5t102 42.5t92 16v-184zM566 1777
l-125 -276h-147l-125 276h102l96 -165l96 165h103z" />
    <glyph glyph-name="Sacute" unicode="&#x15a;" horiz-adv-x="765" 
d="M332 86q40 0 78.5 12.5t68.5 40.5t48 71.5t18 106.5q0 54 -21.5 100t-56.5 88t-80 81.5t-92 79.5t-92 82.5t-80 90t-56.5 102.5t-21.5 120q0 95 35 160t89 104.5t119.5 56.5t127.5 17q65 0 125.5 -10.5t116.5 -22.5v-199q-32 27 -60.5 49t-57 37.5t-58.5 24t-64 8.5
q-42 0 -79.5 -11.5t-65 -35.5t-44 -61t-16.5 -88q0 -71 37 -129.5t93 -111.5t121 -106t121 -114t93 -133.5t37 -165.5q0 -70 -16 -123.5t-43.5 -93t-63.5 -66.5t-77 -43.5t-84.5 -23.5t-84.5 -7q-49 0 -90 3.5t-76.5 10t-66 15t-59.5 18.5v205q31 -29 62 -54.5t64.5 -44.5
t70.5 -29.5t81 -10.5zM339 1501l131 276h178l-203 -276h-106z" />
    <glyph glyph-name="sacute" unicode="&#x15b;" horiz-adv-x="765" 
d="M332 86q40 0 78.5 12.5t68.5 40.5t48 71.5t18 106.5q0 54 -21.5 100t-56.5 88t-80 81.5t-92 79.5t-92 82.5t-80 90t-56.5 102.5t-21.5 120q0 95 35 160t89 104.5t119.5 56.5t127.5 17q65 0 125.5 -10.5t116.5 -22.5v-199q-32 27 -60.5 49t-57 37.5t-58.5 24t-64 8.5
q-42 0 -79.5 -11.5t-65 -35.5t-44 -61t-16.5 -88q0 -71 37 -129.5t93 -111.5t121 -106t121 -114t93 -133.5t37 -165.5q0 -70 -16 -123.5t-43.5 -93t-63.5 -66.5t-77 -43.5t-84.5 -23.5t-84.5 -7q-49 0 -90 3.5t-76.5 10t-66 15t-59.5 18.5v205q31 -29 62 -54.5t64.5 -44.5
t70.5 -29.5t81 -10.5zM339 1501l131 276h178l-203 -276h-106z" />
    <glyph glyph-name="Scircumflex" unicode="&#x15c;" horiz-adv-x="765" 
d="M332 86q40 0 78.5 12.5t68.5 40.5t48 71.5t18 106.5q0 54 -21.5 100t-56.5 88t-80 81.5t-92 79.5t-92 82.5t-80 90t-56.5 102.5t-21.5 120q0 95 35 160t89 104.5t119.5 56.5t127.5 17q65 0 125.5 -10.5t116.5 -22.5v-199q-32 27 -60.5 49t-57 37.5t-58.5 24t-64 8.5
q-42 0 -79.5 -11.5t-65 -35.5t-44 -61t-16.5 -88q0 -71 37 -129.5t93 -111.5t121 -106t121 -114t93 -133.5t37 -165.5q0 -70 -16 -123.5t-43.5 -93t-63.5 -66.5t-77 -43.5t-84.5 -23.5t-84.5 -7q-49 0 -90 3.5t-76.5 10t-66 15t-59.5 18.5v205q31 -29 62 -54.5t64.5 -44.5
t70.5 -29.5t81 -10.5zM492 1501l-96 165l-96 -165h-102l125 276h147l125 -276h-103z" />
    <glyph glyph-name="scircumflex" unicode="&#x15d;" horiz-adv-x="765" 
d="M332 86q40 0 78.5 12.5t68.5 40.5t48 71.5t18 106.5q0 54 -21.5 100t-56.5 88t-80 81.5t-92 79.5t-92 82.5t-80 90t-56.5 102.5t-21.5 120q0 95 35 160t89 104.5t119.5 56.5t127.5 17q65 0 125.5 -10.5t116.5 -22.5v-199q-32 27 -60.5 49t-57 37.5t-58.5 24t-64 8.5
q-42 0 -79.5 -11.5t-65 -35.5t-44 -61t-16.5 -88q0 -71 37 -129.5t93 -111.5t121 -106t121 -114t93 -133.5t37 -165.5q0 -70 -16 -123.5t-43.5 -93t-63.5 -66.5t-77 -43.5t-84.5 -23.5t-84.5 -7q-49 0 -90 3.5t-76.5 10t-66 15t-59.5 18.5v205q31 -29 62 -54.5t64.5 -44.5
t70.5 -29.5t81 -10.5zM492 1501l-96 165l-96 -165h-102l125 276h147l125 -276h-103z" />
    <glyph glyph-name="Scedilla" unicode="&#x15e;" horiz-adv-x="765" 
d="M332 86q40 0 78.5 12.5t68.5 40.5t48 71.5t18 106.5q0 54 -21.5 100t-56.5 88t-80 81.5t-92 79.5t-92 82.5t-80 90t-56.5 102.5t-21.5 120q0 95 35 160t89 104.5t119.5 56.5t127.5 17q65 0 125.5 -10.5t116.5 -22.5v-199q-32 27 -60.5 49t-57 37.5t-58.5 24t-64 8.5
q-42 0 -79.5 -11.5t-65 -35.5t-44 -61t-16.5 -88q0 -71 37 -129.5t93 -111.5t121 -106t121 -114t93 -133.5t37 -165.5q0 -70 -16 -123.5t-43.5 -93t-63.5 -66.5t-77 -43.5t-84.5 -23.5t-84.5 -7q-49 0 -90 3.5t-76.5 10t-66 15t-59.5 18.5v205q31 -29 62 -54.5t64.5 -44.5
t70.5 -29.5t81 -10.5zM337 30h93l-35 -107q24 -4 45.5 -15t37.5 -28.5t25.5 -41.5t9.5 -54q0 -36 -12 -63t-32.5 -45t-48 -27t-58.5 -9q-34 0 -62.5 6t-48.5 12v110q19 -18 42.5 -30t52.5 -12q37 0 53 21t16 45q0 76 -121 76z" />
    <glyph glyph-name="scedilla" unicode="&#x15f;" horiz-adv-x="765" 
d="M332 86q40 0 78.5 12.5t68.5 40.5t48 71.5t18 106.5q0 54 -21.5 100t-56.5 88t-80 81.5t-92 79.5t-92 82.5t-80 90t-56.5 102.5t-21.5 120q0 95 35 160t89 104.5t119.5 56.5t127.5 17q65 0 125.5 -10.5t116.5 -22.5v-199q-32 27 -60.5 49t-57 37.5t-58.5 24t-64 8.5
q-42 0 -79.5 -11.5t-65 -35.5t-44 -61t-16.5 -88q0 -71 37 -129.5t93 -111.5t121 -106t121 -114t93 -133.5t37 -165.5q0 -70 -16 -123.5t-43.5 -93t-63.5 -66.5t-77 -43.5t-84.5 -23.5t-84.5 -7q-49 0 -90 3.5t-76.5 10t-66 15t-59.5 18.5v205q31 -29 62 -54.5t64.5 -44.5
t70.5 -29.5t81 -10.5zM337 30h93l-35 -107q24 -4 45.5 -15t37.5 -28.5t25.5 -41.5t9.5 -54q0 -36 -12 -63t-32.5 -45t-48 -27t-58.5 -9q-34 0 -62.5 6t-48.5 12v110q19 -18 42.5 -30t52.5 -12q37 0 53 21t16 45q0 76 -121 76z" />
    <glyph glyph-name="Scaron" unicode="&#x160;" horiz-adv-x="765" 
d="M332 86q40 0 78.5 12.5t68.5 40.5t48 71.5t18 106.5q0 54 -21.5 100t-56.5 88t-80 81.5t-92 79.5t-92 82.5t-80 90t-56.5 102.5t-21.5 120q0 95 35 160t89 104.5t119.5 56.5t127.5 17q65 0 125.5 -10.5t116.5 -22.5v-199q-32 27 -60.5 49t-57 37.5t-58.5 24t-64 8.5
q-42 0 -79.5 -11.5t-65 -35.5t-44 -61t-16.5 -88q0 -71 37 -129.5t93 -111.5t121 -106t121 -114t93 -133.5t37 -165.5q0 -70 -16 -123.5t-43.5 -93t-63.5 -66.5t-77 -43.5t-84.5 -23.5t-84.5 -7q-49 0 -90 3.5t-76.5 10t-66 15t-59.5 18.5v205q31 -29 62 -54.5t64.5 -44.5
t70.5 -29.5t81 -10.5zM595 1777l-125 -276h-147l-125 276h102l96 -165l96 165h103z" />
    <glyph glyph-name="scaron" unicode="&#x161;" horiz-adv-x="765" 
d="M332 86q40 0 78.5 12.5t68.5 40.5t48 71.5t18 106.5q0 54 -21.5 100t-56.5 88t-80 81.5t-92 79.5t-92 82.5t-80 90t-56.5 102.5t-21.5 120q0 95 35 160t89 104.5t119.5 56.5t127.5 17q65 0 125.5 -10.5t116.5 -22.5v-199q-32 27 -60.5 49t-57 37.5t-58.5 24t-64 8.5
q-42 0 -79.5 -11.5t-65 -35.5t-44 -61t-16.5 -88q0 -71 37 -129.5t93 -111.5t121 -106t121 -114t93 -133.5t37 -165.5q0 -70 -16 -123.5t-43.5 -93t-63.5 -66.5t-77 -43.5t-84.5 -23.5t-84.5 -7q-49 0 -90 3.5t-76.5 10t-66 15t-59.5 18.5v205q31 -29 62 -54.5t64.5 -44.5
t70.5 -29.5t81 -10.5zM595 1777l-125 -276h-147l-125 276h102l96 -165l96 165h103z" />
    <glyph glyph-name="Tcommaaccent" unicode="&#x162;" horiz-adv-x="715" 
d="M15 1374h685v-117h-255q-8 -147 -10 -294t-2 -275q0 -77 1 -162t3 -173.5t5 -178t8 -174.5h-187q6 85 9.5 174.5t5.5 178t3 173.5t1 162q0 128 -2.5 275t-9.5 294h-255v117zM263 -214q0 37 24 62t66 25q41 0 70 -28.5t29 -82.5q0 -27 -7.5 -50t-18.5 -43t-24.5 -36.5
t-26.5 -29.5h-107v5q12 7 26.5 19t28 26t23.5 28.5t13 27.5q-48 0 -72 20t-24 57z" />
    <glyph glyph-name="tcommaaccent" unicode="&#x163;" horiz-adv-x="715" 
d="M15 1374h685v-117h-255q-8 -147 -10 -294t-2 -275q0 -77 1 -162t3 -173.5t5 -178t8 -174.5h-187q6 85 9.5 174.5t5.5 178t3 173.5t1 162q0 128 -2.5 275t-9.5 294h-255v117zM263 -214q0 37 24 62t66 25q41 0 70 -28.5t29 -82.5q0 -27 -7.5 -50t-18.5 -43t-24.5 -36.5
t-26.5 -29.5h-107v5q12 7 26.5 19t28 26t23.5 28.5t13 27.5q-48 0 -72 20t-24 57z" />
    <glyph glyph-name="Tcaron" unicode="&#x164;" horiz-adv-x="715" 
d="M15 1374h685v-117h-255q-8 -147 -10 -294t-2 -275q0 -77 1 -162t3 -173.5t5 -178t8 -174.5h-187q6 85 9.5 174.5t5.5 178t3 173.5t1 162q0 128 -2.5 275t-9.5 294h-255v117zM557 1777l-125 -276h-147l-125 276h102l96 -165l96 165h103z" />
    <glyph glyph-name="tcaron" unicode="&#x165;" horiz-adv-x="715" 
d="M15 1374h685v-117h-255q-8 -147 -10 -294t-2 -275q0 -77 1 -162t3 -173.5t5 -178t8 -174.5h-187q6 85 9.5 174.5t5.5 178t3 173.5t1 162q0 128 -2.5 275t-9.5 294h-255v117zM557 1777l-125 -276h-147l-125 276h102l96 -165l96 165h103z" />
    <glyph glyph-name="Tbar" unicode="&#x166;" horiz-adv-x="715" 
d="M433 838v-150q0 -77 1 -162t3 -173.5t5 -178t8 -174.5h-187q6 85 9.5 174.5t5.5 178t3 173.5t1 162v73t-1 77h-229v117h227q-2 75 -4 151t-5 151h-255v117h685v-117h-255q-4 -75 -6.5 -151t-3.5 -151h228v-117h-230z" />
    <glyph glyph-name="tbar" unicode="&#x167;" horiz-adv-x="715" 
d="M433 838v-150q0 -77 1 -162t3 -173.5t5 -178t8 -174.5h-187q6 85 9.5 174.5t5.5 178t3 173.5t1 162v73t-1 77h-229v117h227q-2 75 -4 151t-5 151h-255v117h685v-117h-255q-4 -75 -6.5 -151t-3.5 -151h228v-117h-230z" />
    <glyph glyph-name="Utilde" unicode="&#x168;" horiz-adv-x="960" 
d="M480 95q56 0 97 22t68 63t40.5 100.5t13.5 133.5v323q0 152 -3.5 312.5t-14.5 324.5h188q-9 -165 -13.5 -326t-4.5 -311v-323q0 -104 -23 -186t-69 -139t-115.5 -87.5t-163.5 -30.5t-163.5 30.5t-115.5 87.5t-69 139t-23 186v323q0 150 -4.5 311t-13.5 326h188
q-11 -164 -14.5 -324.5t-3.5 -312.5v-323q0 -74 13 -133.5t40 -100.5t68.5 -63t97.5 -22zM678 1732q0 -26 -2.5 -64.5t-13.5 -73.5t-32.5 -60t-60.5 -25q-32 0 -56.5 17.5t-43.5 38t-34.5 38t-28.5 17.5t-20 -13.5t-9.5 -31.5t-1.5 -36.5t4 -29.5h-100q0 26 2.5 64t13 73.5
t32.5 60.5t60 25q32 0 56.5 -17.5t44 -38t34.5 -38t29 -17.5q13 0 20 12.5t9.5 30t1.5 36.5t-4 32h100v0z" />
    <glyph glyph-name="utilde" unicode="&#x169;" horiz-adv-x="948" 
d="M263 716q1 -73 2 -139.5t3 -125t5 -106.5t8 -83q13 -87 50 -125.5t95 -38.5q33 0 68 17t67.5 45t62 64t52.5 74q6 198 6 401q0 93 -1 177t-3.5 165t-6 162.5t-8.5 170.5h185q-5 -89 -8.5 -170.5t-6 -162.5t-3.5 -165t-1 -177t1 -180.5t3.5 -173t6 -171t8.5 -174.5h-186
q2 39 4 77.5t4 76.5q-29 -36 -61.5 -68.5t-70.5 -57t-81.5 -39t-94.5 -14.5q-119 0 -184.5 94.5t-65.5 281.5q0 46 0.5 98.5t1.5 103t1.5 93.5t0.5 70q0 93 -1 174t-3 159t-5.5 157t-8.5 168h184q-5 -89 -9 -168t-6.5 -157t-3.5 -159t0 -174zM671 1732q0 -26 -2.5 -64.5
t-13.5 -73.5t-32.5 -60t-60.5 -25q-32 0 -56.5 17.5t-43.5 38t-34.5 38t-28.5 17.5t-20 -13.5t-9.5 -31.5t-1.5 -36.5t4 -29.5h-100q0 26 2.5 64t13 73.5t32.5 60.5t60 25q32 0 56.5 -17.5t44 -38t34.5 -38t29 -17.5q13 0 20 12.5t9.5 30t1.5 36.5t-4 32h100v0z" />
    <glyph glyph-name="Umacron" unicode="&#x16a;" horiz-adv-x="960" 
d="M480 95q56 0 97 22t68 63t40.5 100.5t13.5 133.5v323q0 152 -3.5 312.5t-14.5 324.5h188q-9 -165 -13.5 -326t-4.5 -311v-323q0 -104 -23 -186t-69 -139t-115.5 -87.5t-163.5 -30.5t-163.5 30.5t-115.5 87.5t-69 139t-23 186v323q0 150 -4.5 311t-13.5 326h188
q-11 -164 -14.5 -324.5t-3.5 -312.5v-323q0 -74 13 -133.5t40 -100.5t68.5 -63t97.5 -22zM309 1532v117h341v-117h-341z" />
    <glyph glyph-name="umacron" unicode="&#x16b;" horiz-adv-x="948" 
d="M263 716q1 -73 2 -139.5t3 -125t5 -106.5t8 -83q13 -87 50 -125.5t95 -38.5q33 0 68 17t67.5 45t62 64t52.5 74q6 198 6 401q0 93 -1 177t-3.5 165t-6 162.5t-8.5 170.5h185q-5 -89 -8.5 -170.5t-6 -162.5t-3.5 -165t-1 -177t1 -180.5t3.5 -173t6 -171t8.5 -174.5h-186
q2 39 4 77.5t4 76.5q-29 -36 -61.5 -68.5t-70.5 -57t-81.5 -39t-94.5 -14.5q-119 0 -184.5 94.5t-65.5 281.5q0 46 0.5 98.5t1.5 103t1.5 93.5t0.5 70q0 93 -1 174t-3 159t-5.5 157t-8.5 168h184q-5 -89 -9 -168t-6.5 -157t-3.5 -159t0 -174zM302 1532v117h341v-117h-341z
" />
    <glyph glyph-name="Ubreve" unicode="&#x16c;" horiz-adv-x="960" 
d="M480 95q56 0 97 22t68 63t40.5 100.5t13.5 133.5v323q0 152 -3.5 312.5t-14.5 324.5h188q-9 -165 -13.5 -326t-4.5 -311v-323q0 -104 -23 -186t-69 -139t-115.5 -87.5t-163.5 -30.5t-163.5 30.5t-115.5 87.5t-69 139t-23 186v323q0 150 -4.5 311t-13.5 326h188
q-11 -164 -14.5 -324.5t-3.5 -312.5v-323q0 -74 13 -133.5t40 -100.5t68.5 -63t97.5 -22zM677 1733q-1 -37 -10.5 -75t-32.5 -68.5t-60.5 -49.5t-94.5 -19q-56 0 -93.5 19t-60.5 49.5t-33.5 68.5t-11.5 75h104q2 -18 6.5 -37t14.5 -34.5t27.5 -25.5t46.5 -10t47 10
t28.5 25.5t15.5 34.5t7 37h100v0z" />
    <glyph glyph-name="ubreve" unicode="&#x16d;" horiz-adv-x="948" 
d="M263 716q1 -73 2 -139.5t3 -125t5 -106.5t8 -83q13 -87 50 -125.5t95 -38.5q33 0 68 17t67.5 45t62 64t52.5 74q6 198 6 401q0 93 -1 177t-3.5 165t-6 162.5t-8.5 170.5h185q-5 -89 -8.5 -170.5t-6 -162.5t-3.5 -165t-1 -177t1 -180.5t3.5 -173t6 -171t8.5 -174.5h-186
q2 39 4 77.5t4 76.5q-29 -36 -61.5 -68.5t-70.5 -57t-81.5 -39t-94.5 -14.5q-119 0 -184.5 94.5t-65.5 281.5q0 46 0.5 98.5t1.5 103t1.5 93.5t0.5 70q0 93 -1 174t-3 159t-5.5 157t-8.5 168h184q-5 -89 -9 -168t-6.5 -157t-3.5 -159t0 -174zM670 1733q-1 -37 -10.5 -75
t-32.5 -68.5t-60.5 -49.5t-94.5 -19q-56 0 -93.5 19t-60.5 49.5t-33.5 68.5t-11.5 75h104q2 -18 6.5 -37t14.5 -34.5t27.5 -25.5t46.5 -10t47 10t28.5 25.5t15.5 34.5t7 37h100v0z" />
    <glyph glyph-name="Uring" unicode="&#x16e;" horiz-adv-x="960" 
d="M480 95q56 0 97 22t68 63t40.5 100.5t13.5 133.5v323q0 152 -3.5 312.5t-14.5 324.5h188q-9 -165 -13.5 -326t-4.5 -311v-323q0 -104 -23 -186t-69 -139t-115.5 -87.5t-163.5 -30.5t-163.5 30.5t-115.5 87.5t-69 139t-23 186v323q0 150 -4.5 311t-13.5 326h188
q-11 -164 -14.5 -324.5t-3.5 -312.5v-323q0 -74 13 -133.5t40 -100.5t68.5 -63t97.5 -22zM305 1646q0 36 13.5 67.5t37.5 55.5t55.5 37.5t67.5 13.5t68 -13.5t55.5 -37.5t37 -55.5t13.5 -67.5t-13.5 -67.5t-37 -55.5t-55.5 -37.5t-68 -13.5t-67.5 13.5t-55.5 37.5
t-37.5 55.5t-13.5 67.5zM399 1646q0 -16 6.5 -30.5t17.5 -25.5t25.5 -17.5t30.5 -6.5t30.5 6.5t25.5 17.5t17.5 25.5t6.5 30.5t-6.5 30.5t-17.5 25.5t-25.5 17.5t-30.5 6.5t-30.5 -6.5t-25.5 -17.5t-17.5 -25.5t-6.5 -30.5z" />
    <glyph glyph-name="uring" unicode="&#x16f;" horiz-adv-x="948" 
d="M263 716q1 -73 2 -139.5t3 -125t5 -106.5t8 -83q13 -87 50 -125.5t95 -38.5q33 0 68 17t67.5 45t62 64t52.5 74q6 198 6 401q0 93 -1 177t-3.5 165t-6 162.5t-8.5 170.5h185q-5 -89 -8.5 -170.5t-6 -162.5t-3.5 -165t-1 -177t1 -180.5t3.5 -173t6 -171t8.5 -174.5h-186
q2 39 4 77.5t4 76.5q-29 -36 -61.5 -68.5t-70.5 -57t-81.5 -39t-94.5 -14.5q-119 0 -184.5 94.5t-65.5 281.5q0 46 0.5 98.5t1.5 103t1.5 93.5t0.5 70q0 93 -1 174t-3 159t-5.5 157t-8.5 168h184q-5 -89 -9 -168t-6.5 -157t-3.5 -159t0 -174zM298 1646q0 36 13.5 67.5
t37.5 55.5t55.5 37.5t67.5 13.5t68 -13.5t55.5 -37.5t37 -55.5t13.5 -67.5t-13.5 -67.5t-37 -55.5t-55.5 -37.5t-68 -13.5t-67.5 13.5t-55.5 37.5t-37.5 55.5t-13.5 67.5zM392 1646q0 -16 6.5 -30.5t17.5 -25.5t25.5 -17.5t30.5 -6.5t30.5 6.5t25.5 17.5t17.5 25.5t6.5 30.5
t-6.5 30.5t-17.5 25.5t-25.5 17.5t-30.5 6.5t-30.5 -6.5t-25.5 -17.5t-17.5 -25.5t-6.5 -30.5z" />
    <glyph glyph-name="Uhungarumlaut" unicode="&#x170;" horiz-adv-x="960" 
d="M480 95q56 0 97 22t68 63t40.5 100.5t13.5 133.5v323q0 152 -3.5 312.5t-14.5 324.5h188q-9 -165 -13.5 -326t-4.5 -311v-323q0 -104 -23 -186t-69 -139t-115.5 -87.5t-163.5 -30.5t-163.5 30.5t-115.5 87.5t-69 139t-23 186v323q0 150 -4.5 311t-13.5 326h188
q-11 -164 -14.5 -324.5t-3.5 -312.5v-323q0 -74 13 -133.5t40 -100.5t68.5 -63t97.5 -22zM604 1501h-102l115 276h131zM443 1501h-95l74 276h129z" />
    <glyph glyph-name="uhungarumlaut" unicode="&#x171;" horiz-adv-x="948" 
d="M263 716q1 -73 2 -139.5t3 -125t5 -106.5t8 -83q13 -87 50 -125.5t95 -38.5q33 0 68 17t67.5 45t62 64t52.5 74q6 198 6 401q0 93 -1 177t-3.5 165t-6 162.5t-8.5 170.5h185q-5 -89 -8.5 -170.5t-6 -162.5t-3.5 -165t-1 -177t1 -180.5t3.5 -173t6 -171t8.5 -174.5h-186
q2 39 4 77.5t4 76.5q-29 -36 -61.5 -68.5t-70.5 -57t-81.5 -39t-94.5 -14.5q-119 0 -184.5 94.5t-65.5 281.5q0 46 0.5 98.5t1.5 103t1.5 93.5t0.5 70q0 93 -1 174t-3 159t-5.5 157t-8.5 168h184q-5 -89 -9 -168t-6.5 -157t-3.5 -159t0 -174zM597 1501h-102l115 276h131z
M436 1501h-95l74 276h129z" />
    <glyph glyph-name="Uogonek" unicode="&#x172;" horiz-adv-x="960" 
d="M480 95q56 0 97 22t68 63t40.5 100.5t13.5 133.5v323q0 152 -3.5 312.5t-14.5 324.5h188q-9 -165 -13.5 -326t-4.5 -311v-323q0 -197 -82 -312.5t-249 -128.5q-25 -35 -43.5 -73t-18.5 -76q0 -37 21 -56t53 -19q26 0 49.5 10.5t37.5 28.5v-110q-20 -8 -44 -13t-58 -5
q-29 0 -57.5 8t-51 25.5t-36 45.5t-13.5 68q0 42 20.5 85t52.5 82q-82 7 -142.5 40.5t-100.5 90t-60 134.5t-20 175v323q0 150 -4.5 311t-13.5 326h188q-11 -164 -14.5 -324.5t-3.5 -312.5v-323q0 -74 13 -133.5t40 -100.5t68.5 -63t97.5 -22z" />
    <glyph glyph-name="uogonek" unicode="&#x173;" horiz-adv-x="948" 
d="M263 716q1 -73 2 -139.5t3 -125t5 -106.5t8 -83q13 -87 50 -125.5t95 -38.5q33 0 68 17t67.5 45t62 64t52.5 74q6 198 6 401q0 93 -1 177t-3.5 165t-6 162.5t-8.5 170.5h185q-5 -89 -8.5 -170.5t-6 -162.5t-3.5 -165t-1 -177t1 -180.5t3.5 -173t6 -171t8.5 -174.5
q-66 -39 -98.5 -84.5t-32.5 -91.5q0 -37 21 -56t53 -19q26 0 49.5 10.5t37.5 28.5v-110q-20 -8 -44 -13t-58 -5q-29 0 -57.5 8t-51 25.5t-36 45.5t-13.5 68q0 49 32 100t84 93h-72q2 39 4 77.5t4 76.5q-29 -36 -61.5 -68.5t-70.5 -57t-81.5 -39t-94.5 -14.5
q-119 0 -184.5 94.5t-65.5 281.5q0 46 0.5 98.5t1.5 103t1.5 93.5t0.5 70q0 93 -1 174t-3 159t-5.5 157t-8.5 168h184q-5 -89 -9 -168t-6.5 -157t-3.5 -159t0 -174z" />
    <glyph glyph-name="Wcircumflex" unicode="&#x174;" horiz-adv-x="1296" 
d="M641 1123q-12 -88 -25.5 -191.5t-27.5 -211t-28 -214t-26 -202t-21.5 -174t-14.5 -130.5h-237q-11 75 -25.5 172t-32 209.5t-38.5 236t-44.5 251t-49.5 255.5t-53 250h193q38 -300 77.5 -590.5t86.5 -581.5h14q23 145 43.5 290t39 291.5t36.5 294t37 296.5h206
q37 -299 72.5 -591t82.5 -581h14q47 291 87 581.5t78 590.5h193q-27 -122 -53 -250t-49.5 -255.5t-44.5 -251t-38.5 -236t-32.5 -209.5t-25 -172h-237q-5 52 -14.5 130.5t-21.5 174t-26 202t-28 214t-28 211t-25 191.5h-14zM744 1501l-96 165l-96 -165h-102l125 276h147
l125 -276h-103z" />
    <glyph glyph-name="wcircumflex" unicode="&#x175;" horiz-adv-x="1296" 
d="M641 1123q-12 -88 -25.5 -191.5t-27.5 -211t-28 -214t-26 -202t-21.5 -174t-14.5 -130.5h-237q-11 75 -25.5 172t-32 209.5t-38.5 236t-44.5 251t-49.5 255.5t-53 250h193q38 -300 77.5 -590.5t86.5 -581.5h14q23 145 43.5 290t39 291.5t36.5 294t37 296.5h206
q37 -299 72.5 -591t82.5 -581h14q47 291 87 581.5t78 590.5h193q-27 -122 -53 -250t-49.5 -255.5t-44.5 -251t-38.5 -236t-32.5 -209.5t-25 -172h-237q-5 52 -14.5 130.5t-21.5 174t-26 202t-28 214t-28 211t-25 191.5h-14zM744 1501l-96 165l-96 -165h-102l125 276h147
l125 -276h-103z" />
    <glyph glyph-name="Ycircumflex" unicode="&#x176;" horiz-adv-x="744" 
d="M744 1374q-35 -89 -70.5 -180.5t-72.5 -190t-74.5 -205t-77.5 -223.5q1 -148 5 -289.5t12 -285.5h-187q9 144 13.5 285.5t5.5 289.5q-40 117 -78 223.5t-75.5 205t-73.5 190t-71 180.5h186q43 -173 88.5 -325t94.5 -291h4q49 139 95 291t90 325h186v0zM468 1501l-96 165
l-96 -165h-102l125 276h147l125 -276h-103z" />
    <glyph glyph-name="ycircumflex" unicode="&#x177;" horiz-adv-x="821" 
d="M163 -27q-45 0 -80 4.5t-44 6.5v142q5 -2 16.5 -5t27 -6t33.5 -5.5t35 -2.5q58 0 91.5 36.5t60.5 112.5q14 41 29 85.5t31 93.5q-26 77 -56.5 161t-62.5 169.5t-64 170t-62.5 163.5t-58 149l-49.5 126h186q19 -77 48 -173t61.5 -195t64.5 -193.5t58 -169.5q33 109 65 218
t59 206.5t47.5 177t31.5 129.5h186q-33 -98 -77 -228t-93.5 -281.5t-101.5 -318t-101 -335.5q-35 -120 -101.5 -179t-179.5 -59zM512 1501l-96 165l-96 -165h-102l125 276h147l125 -276h-103z" />
    <glyph glyph-name="Ydieresis" unicode="&#x178;" horiz-adv-x="744" 
d="M744 1374q-35 -89 -70.5 -180.5t-72.5 -190t-74.5 -205t-77.5 -223.5q1 -148 5 -289.5t12 -285.5h-187q9 144 13.5 285.5t5.5 289.5q-40 117 -78 223.5t-75.5 205t-73.5 190t-71 180.5h186q43 -173 88.5 -325t94.5 -291h4q49 139 95 291t90 325h186v0zM172 1602
q0 34 23.5 57.5t57.5 23.5t57.5 -23.5t23.5 -57.5t-23.5 -57.5t-57.5 -23.5t-57.5 23.5t-23.5 57.5zM409 1602q0 34 23.5 57.5t57.5 23.5t57.5 -23.5t23.5 -57.5t-23.5 -57.5t-57.5 -23.5t-57.5 23.5t-23.5 57.5z" />
    <glyph glyph-name="Zacute" unicode="&#x179;" horiz-adv-x="751" 
d="M40 0v10q121 303 232.5 620t204.5 627h-412v117h640v-10q-121 -303 -235 -620t-207 -627h448v-117h-671zM322 1501l131 276h178l-203 -276h-106z" />
    <glyph glyph-name="zacute" unicode="&#x17a;" horiz-adv-x="751" 
d="M40 0v10q121 303 232.5 620t204.5 627h-412v117h640v-10q-121 -303 -235 -620t-207 -627h448v-117h-671zM322 1501l131 276h178l-203 -276h-106z" />
    <glyph glyph-name="Zdotaccent" unicode="&#x17b;" horiz-adv-x="751" 
d="M40 0v10q121 303 232.5 620t204.5 627h-412v117h640v-10q-121 -303 -235 -620t-207 -627h448v-117h-671zM289 1602q0 38 26 64t64 26t64 -26t26 -64t-26 -64t-64 -26t-64 26t-26 64z" />
    <glyph glyph-name="zdotaccent" unicode="&#x17c;" horiz-adv-x="751" 
d="M40 0v10q121 303 232.5 620t204.5 627h-412v117h640v-10q-121 -303 -235 -620t-207 -627h448v-117h-671zM289 1602q0 38 26 64t64 26t64 -26t26 -64t-26 -64t-64 -26t-64 26t-26 64z" />
    <glyph glyph-name="Zcaron" unicode="&#x17d;" horiz-adv-x="751" 
d="M40 0v10q121 303 232.5 620t204.5 627h-412v117h640v-10q-121 -303 -235 -620t-207 -627h448v-117h-671zM578 1777l-125 -276h-147l-125 276h102l96 -165l96 165h103z" />
    <glyph glyph-name="zcaron" unicode="&#x17e;" horiz-adv-x="751" 
d="M40 0v10q121 303 232.5 620t204.5 627h-412v117h640v-10q-121 -303 -235 -620t-207 -627h448v-117h-671zM578 1777l-125 -276h-147l-125 276h102l96 -165l96 165h103z" />
    <glyph glyph-name="florin" unicode="&#x192;" horiz-adv-x="836" 
d="M379 940l20 119q12 76 32 138.5t52 107.5t77 69.5t105 24.5q40 0 75 -6t66 -17v-158q-23 22 -53.5 41.5t-65.5 19.5q-57 0 -88.5 -52t-45.5 -152l-20 -135h156v-115h-170l-69 -485q-14 -96 -33 -172t-51 -129t-80 -81t-118 -28q-32 0 -69.5 6t-78.5 23v158q38 -33 67 -50
t57 -17q34 0 57.5 20t40.5 58.5t29 95t22 130.5l68 471h-151v115h169z" />
    <glyph glyph-name="AEacute" unicode="&#x1fc;" horiz-adv-x="1155" 
d="M1071 1257h-398q-6 -115 -8.5 -229.5t-3.5 -222.5h381v-117h-381q0 -129 2 -276.5t9 -294.5h405v-117h-586q6 92 9.5 187.5t5.5 190.5h-251q-16 -98 -30.5 -192.5t-28.5 -185.5h-190q32 121 63 249.5t59 256t53.5 251t47 236t39.5 209.5t31 172h772v-117zM510 688
q0 128 -2.5 275t-9.5 293h-70q-42 -177 -80.5 -370.5t-72.5 -390.5h234q1 51 1 99v94zM591 1501l131 276h178l-203 -276h-106z" />
    <glyph glyph-name="aeacute" unicode="&#x1fd;" horiz-adv-x="1446" 
d="M1083 90q44 0 79.5 11t65.5 27.5t55 37t48 39.5v-197q-26 -5 -52.5 -11t-59 -11t-72.5 -9t-92 -4q-199 0 -305 160q-56 -47 -105.5 -78t-96 -49t-92 -25t-92.5 -7q-69 0 -126.5 25.5t-99.5 75t-65 122t-23 167.5q0 121 38 206.5t112 145t183 96t250 59.5
q0 121 -13.5 200.5t-39 126.5t-62.5 65.5t-83 18.5q-40 0 -80 -12.5t-79.5 -33.5t-79 -48.5t-77.5 -57.5v194q42 16 80 29.5t76.5 23.5t77.5 16t83 6q112 0 186.5 -39t115.5 -124q45 78 111 120.5t155 42.5q101 0 173.5 -46.5t119 -135t68 -217.5t21.5 -295v-37h-604
q6 -159 25.5 -269t55.5 -179t90.5 -99.5t129.5 -30.5zM403 95q43 0 85.5 12.5t80.5 33.5t70 47.5t56 54.5q-65 168 -65 439v41t1 40q-125 -16 -204 -51t-123 -85t-60 -114t-16 -137q0 -63 12 -115t34.5 -89t55 -57t73.5 -20zM1214 784q-2 58 -6 118t-12.5 116t-23 105
t-37.5 85t-56 57t-78 21q-60 0 -99.5 -44t-64 -115t-36.5 -161t-17 -182h430zM680 1501l131 276h178l-203 -276h-106z" />
    <glyph glyph-name="Oslashacute" unicode="&#x1fe;" 
d="M934 686q0 -185 -33 -319.5t-91.5 -222t-137.5 -129.5t-170 -42q-80 0 -152 32l-33 -107l-113 36l44 143q-83 82 -131.5 233t-48.5 376q0 184 33.5 318.5t92 222.5t137.5 130t171 42q80 0 148 -31l33 106l113 -36l-44 -141q42 -41 75.5 -99.5t57 -134t36.5 -170
t13 -207.5zM762 686q0 145 -17.5 251.5t-48.5 178.5l-305 -981q25 -21 53 -31t58 -10q55 0 102.5 34.5t82.5 106.5t55 184t20 267zM240 686q0 -144 17 -249.5t48 -178.5l305 981q-50 39 -108 39q-56 0 -103.5 -34.5t-83 -107t-55.5 -184.5t-20 -266zM445 1501l131 276h178
l-203 -276h-106z" />
    <glyph glyph-name="oslashacute" unicode="&#x1ff;" 
d="M934 686q0 -185 -33 -319.5t-91.5 -222t-137.5 -129.5t-170 -42q-80 0 -152 32l-33 -107l-113 36l44 143q-83 82 -131.5 233t-48.5 376q0 184 33.5 318.5t92 222.5t137.5 130t171 42q80 0 148 -31l33 106l113 -36l-44 -141q42 -41 75.5 -99.5t57 -134t36.5 -170
t13 -207.5zM762 686q0 145 -17.5 251.5t-48.5 178.5l-305 -981q25 -21 53 -31t58 -10q55 0 102.5 34.5t82.5 106.5t55 184t20 267zM240 686q0 -144 17 -249.5t48 -178.5l305 981q-50 39 -108 39q-56 0 -103.5 -34.5t-83 -107t-55.5 -184.5t-20 -266zM445 1501l131 276h178
l-203 -276h-106z" />
    <glyph glyph-name="dotlessj" unicode="&#x237;" horiz-adv-x="571" 
d="M20 121q10 -3 38 -11t71 -8q31 0 59 9t50 33t38 66t24 108q8 64 8.5 168t0.5 244q0 152 -3.5 316t-14.5 328h188q-5 -82 -8 -161t-5.5 -151t-3.5 -134.5t-1 -112.5q0 -56 0.5 -116t1.5 -114t1.5 -96.5t0.5 -63.5q0 -107 -21 -191t-64 -142t-109.5 -88t-157.5 -30
q-29 0 -56.5 4t-36.5 6v137z" />
    <glyph glyph-name="circumflex" unicode="&#x2c6;" horiz-adv-x="541" 
d="M366 1139l-96 165l-96 -165h-102l125 276h147l125 -276h-103z" />
    <glyph glyph-name="caron" unicode="&#x2c7;" horiz-adv-x="541" 
d="M469 1415l-125 -276h-147l-125 276h102l96 -165l96 165h103z" />
    <glyph glyph-name="breve" unicode="&#x2d8;" horiz-adv-x="541" 
d="M468 1371q-1 -37 -10.5 -75t-32.5 -68.5t-60.5 -49.5t-94.5 -19q-56 0 -93.5 19t-60.5 49.5t-33.5 68.5t-11.5 75h104q2 -18 6.5 -37t14.5 -34.5t27.5 -25.5t46.5 -10t47 10t28.5 25.5t15.5 34.5t7 37h100v0z" />
    <glyph glyph-name="dotaccent" unicode="&#x2d9;" horiz-adv-x="541" 
d="M180 1240q0 38 26 64t64 26t64 -26t26 -64t-26 -64t-64 -26t-64 26t-26 64z" />
    <glyph glyph-name="ring" unicode="&#x2da;" horiz-adv-x="541" 
d="M96 1284q0 36 13.5 67.5t37.5 55.5t55.5 37.5t67.5 13.5t68 -13.5t55.5 -37.5t37 -55.5t13.5 -67.5t-13.5 -67.5t-37 -55.5t-55.5 -37.5t-68 -13.5t-67.5 13.5t-55.5 37.5t-37.5 55.5t-13.5 67.5zM190 1284q0 -16 6.5 -30.5t17.5 -25.5t25.5 -17.5t30.5 -6.5t30.5 6.5
t25.5 17.5t17.5 25.5t6.5 30.5t-6.5 30.5t-17.5 25.5t-25.5 17.5t-30.5 6.5t-30.5 -6.5t-25.5 -17.5t-17.5 -25.5t-6.5 -30.5z" />
    <glyph glyph-name="ogonek" unicode="&#x2db;" horiz-adv-x="541" 
d="M326 20q-16 -21 -33.5 -44.5t-31.5 -48.5t-23.5 -51t-9.5 -52q0 -37 21 -56t53 -19q26 0 49.5 10.5t37.5 28.5v-110q-20 -8 -44 -13t-58 -5q-29 0 -57.5 8t-51 25.5t-36 45.5t-13.5 68q0 27 9.5 55t25 55.5t36.5 53.5t44 49h82z" />
    <glyph glyph-name="tilde" unicode="&#x2dc;" horiz-adv-x="541" 
d="M470 1370q0 -26 -2.5 -64.5t-13.5 -73.5t-32.5 -60t-60.5 -25q-32 0 -56.5 17.5t-43.5 38t-34.5 38t-28.5 17.5t-20 -13.5t-9.5 -31.5t-1.5 -36.5t4 -29.5h-100q0 26 2.5 64t13 73.5t32.5 60.5t60 25q32 0 56.5 -17.5t44 -38t34.5 -38t29 -17.5q13 0 20 12.5t9.5 30
t1.5 36.5t-4 32h100v0z" />
    <glyph glyph-name="hungarumlaut" unicode="&#x2dd;" horiz-adv-x="541" 
d="M401 1139h-102l115 276h131zM240 1139h-95l74 276h129z" />
    <glyph glyph-name="mu" unicode="&#x3bc;" horiz-adv-x="884" 
d="M382 958q-11 -38 -22.5 -89.5t-24 -110t-25 -120t-24.5 -120.5q-27 -138 -55 -288q0 -73 29 -105t77 -32q23 0 52.5 14t60 36t58.5 49t48 54q29 159 55 299q11 60 21.5 121t19.5 116.5t16 101t10 74.5h176q-35 -142 -64 -286.5t-51 -273.5t-36.5 -233t-18.5 -165h-172
l21 121q-23 -29 -49.5 -55t-55 -45.5t-57 -31.5t-55.5 -12t-46.5 9.5t-33 23t-22.5 29.5t-16 29l-88 -478h-170q18 75 38.5 165t41 188.5t41 201.5t39.5 203t36 193.5t31 173.5t24 142.5t15 100.5h176z" />
    <glyph glyph-name="Wgrave" unicode="&#x1e80;" horiz-adv-x="1296" 
d="M641 1123q-12 -88 -25.5 -191.5t-27.5 -211t-28 -214t-26 -202t-21.5 -174t-14.5 -130.5h-237q-11 75 -25.5 172t-32 209.5t-38.5 236t-44.5 251t-49.5 255.5t-53 250h193q38 -300 77.5 -590.5t86.5 -581.5h14q23 145 43.5 290t39 291.5t36.5 294t37 296.5h206
q37 -299 72.5 -591t82.5 -581h14q47 291 87 581.5t78 590.5h193q-27 -122 -53 -250t-49.5 -255.5t-44.5 -251t-38.5 -236t-32.5 -209.5t-25 -172h-237q-5 52 -14.5 130.5t-21.5 174t-26 202t-28 214t-28 211t-25 191.5h-14zM595 1501l-203 276h178l131 -276h-106z" />
    <glyph glyph-name="wgrave" unicode="&#x1e81;" horiz-adv-x="1296" 
d="M641 1123q-12 -88 -25.5 -191.5t-27.5 -211t-28 -214t-26 -202t-21.5 -174t-14.5 -130.5h-237q-11 75 -25.5 172t-32 209.5t-38.5 236t-44.5 251t-49.5 255.5t-53 250h193q38 -300 77.5 -590.5t86.5 -581.5h14q23 145 43.5 290t39 291.5t36.5 294t37 296.5h206
q37 -299 72.5 -591t82.5 -581h14q47 291 87 581.5t78 590.5h193q-27 -122 -53 -250t-49.5 -255.5t-44.5 -251t-38.5 -236t-32.5 -209.5t-25 -172h-237q-5 52 -14.5 130.5t-21.5 174t-26 202t-28 214t-28 211t-25 191.5h-14zM595 1501l-203 276h178l131 -276h-106z" />
    <glyph glyph-name="Wacute" unicode="&#x1e82;" horiz-adv-x="1296" 
d="M641 1123q-12 -88 -25.5 -191.5t-27.5 -211t-28 -214t-26 -202t-21.5 -174t-14.5 -130.5h-237q-11 75 -25.5 172t-32 209.5t-38.5 236t-44.5 251t-49.5 255.5t-53 250h193q38 -300 77.5 -590.5t86.5 -581.5h14q23 145 43.5 290t39 291.5t36.5 294t37 296.5h206
q37 -299 72.5 -591t82.5 -581h14q47 291 87 581.5t78 590.5h193q-27 -122 -53 -250t-49.5 -255.5t-44.5 -251t-38.5 -236t-32.5 -209.5t-25 -172h-237q-5 52 -14.5 130.5t-21.5 174t-26 202t-28 214t-28 211t-25 191.5h-14zM591 1501l131 276h178l-203 -276h-106z" />
    <glyph glyph-name="wacute" unicode="&#x1e83;" horiz-adv-x="1296" 
d="M641 1123q-12 -88 -25.5 -191.5t-27.5 -211t-28 -214t-26 -202t-21.5 -174t-14.5 -130.5h-237q-11 75 -25.5 172t-32 209.5t-38.5 236t-44.5 251t-49.5 255.5t-53 250h193q38 -300 77.5 -590.5t86.5 -581.5h14q23 145 43.5 290t39 291.5t36.5 294t37 296.5h206
q37 -299 72.5 -591t82.5 -581h14q47 291 87 581.5t78 590.5h193q-27 -122 -53 -250t-49.5 -255.5t-44.5 -251t-38.5 -236t-32.5 -209.5t-25 -172h-237q-5 52 -14.5 130.5t-21.5 174t-26 202t-28 214t-28 211t-25 191.5h-14zM591 1501l131 276h178l-203 -276h-106z" />
    <glyph glyph-name="Wdieresis" unicode="&#x1e84;" horiz-adv-x="1296" 
d="M641 1123q-12 -88 -25.5 -191.5t-27.5 -211t-28 -214t-26 -202t-21.5 -174t-14.5 -130.5h-237q-11 75 -25.5 172t-32 209.5t-38.5 236t-44.5 251t-49.5 255.5t-53 250h193q38 -300 77.5 -590.5t86.5 -581.5h14q23 145 43.5 290t39 291.5t36.5 294t37 296.5h206
q37 -299 72.5 -591t82.5 -581h14q47 291 87 581.5t78 590.5h193q-27 -122 -53 -250t-49.5 -255.5t-44.5 -251t-38.5 -236t-32.5 -209.5t-25 -172h-237q-5 52 -14.5 130.5t-21.5 174t-26 202t-28 214t-28 211t-25 191.5h-14zM448 1602q0 34 23.5 57.5t57.5 23.5t57.5 -23.5
t23.5 -57.5t-23.5 -57.5t-57.5 -23.5t-57.5 23.5t-23.5 57.5zM685 1602q0 34 23.5 57.5t57.5 23.5t57.5 -23.5t23.5 -57.5t-23.5 -57.5t-57.5 -23.5t-57.5 23.5t-23.5 57.5z" />
    <glyph glyph-name="wdieresis" unicode="&#x1e85;" horiz-adv-x="1296" 
d="M641 1123q-12 -88 -25.5 -191.5t-27.5 -211t-28 -214t-26 -202t-21.5 -174t-14.5 -130.5h-237q-11 75 -25.5 172t-32 209.5t-38.5 236t-44.5 251t-49.5 255.5t-53 250h193q38 -300 77.5 -590.5t86.5 -581.5h14q23 145 43.5 290t39 291.5t36.5 294t37 296.5h206
q37 -299 72.5 -591t82.5 -581h14q47 291 87 581.5t78 590.5h193q-27 -122 -53 -250t-49.5 -255.5t-44.5 -251t-38.5 -236t-32.5 -209.5t-25 -172h-237q-5 52 -14.5 130.5t-21.5 174t-26 202t-28 214t-28 211t-25 191.5h-14zM448 1602q0 34 23.5 57.5t57.5 23.5t57.5 -23.5
t23.5 -57.5t-23.5 -57.5t-57.5 -23.5t-57.5 23.5t-23.5 57.5zM685 1602q0 34 23.5 57.5t57.5 23.5t57.5 -23.5t23.5 -57.5t-23.5 -57.5t-57.5 -23.5t-57.5 23.5t-23.5 57.5z" />
    <glyph glyph-name="Ygrave" unicode="&#x1ef2;" horiz-adv-x="744" 
d="M744 1374q-35 -89 -70.5 -180.5t-72.5 -190t-74.5 -205t-77.5 -223.5q1 -148 5 -289.5t12 -285.5h-187q9 144 13.5 285.5t5.5 289.5q-40 117 -78 223.5t-75.5 205t-73.5 190t-71 180.5h186q43 -173 88.5 -325t94.5 -291h4q49 139 95 291t90 325h186v0zM319 1501l-203 276
h178l131 -276h-106z" />
    <glyph glyph-name="ygrave" unicode="&#x1ef3;" horiz-adv-x="821" 
d="M163 -27q-45 0 -80 4.5t-44 6.5v142q5 -2 16.5 -5t27 -6t33.5 -5.5t35 -2.5q58 0 91.5 36.5t60.5 112.5q14 41 29 85.5t31 93.5q-26 77 -56.5 161t-62.5 169.5t-64 170t-62.5 163.5t-58 149l-49.5 126h186q19 -77 48 -173t61.5 -195t64.5 -193.5t58 -169.5q33 109 65 218
t59 206.5t47.5 177t31.5 129.5h186q-33 -98 -77 -228t-93.5 -281.5t-101.5 -318t-101 -335.5q-35 -120 -101.5 -179t-179.5 -59zM373 1501l-203 276h178l131 -276h-106z" />
    <glyph glyph-name="endash" unicode="&#x2013;" horiz-adv-x="1024" 
d="M120 629v115h784v-115h-784z" />
    <glyph glyph-name="emdash" unicode="&#x2014;" horiz-adv-x="2048" 
d="M0 629v115h2048v-115h-2048z" />
    <glyph glyph-name="quoteleft" unicode="&#x2018;" horiz-adv-x="279" 
d="M239 1167q0 -37 -28 -62t-70 -25q-41 0 -71 28.5t-30 82.5q0 32 13 64t33.5 60t44.5 50t46 34l50 -49q-12 -5 -25 -15t-24 -22.5t-18 -28t-7 -30.5q37 -5 61.5 -27.5t24.5 -59.5z" />
    <glyph glyph-name="quoteright" unicode="&#x2019;" horiz-adv-x="279" 
d="M40 1312q0 37 28 62t70 25q41 0 71 -28.5t30 -82.5q0 -32 -13.5 -64t-33.5 -60t-44 -50t-46 -34l-50 49q12 5 25 15t24 22.5t18 28t7 30.5q-37 5 -61.5 27.5t-24.5 59.5z" />
    <glyph glyph-name="quotesinglbase" unicode="&#x201a;" horiz-adv-x="279" 
d="M40 87q0 37 28 62t70 25q41 0 71 -28.5t30 -82.5q0 -32 -13.5 -64t-33.5 -60t-44 -50t-46 -34l-50 49q12 5 25 15t24 22.5t18 28t7 30.5q-37 5 -61.5 27.5t-24.5 59.5z" />
    <glyph glyph-name="quotedblleft" unicode="&#x201c;" horiz-adv-x="539" 
d="M239 1167q0 -37 -28 -62t-70 -25q-41 0 -71 28.5t-30 82.5q0 32 13 64t33.5 60t44.5 50t46 34l50 -49q-12 -5 -25 -15t-24 -22.5t-18 -28t-7 -30.5q37 -5 61.5 -27.5t24.5 -59.5zM499 1167q0 -37 -28 -62t-70 -25q-41 0 -71 28.5t-30 82.5q0 32 13 64t33.5 60t44.5 50
t46 34l50 -49q-12 -5 -25 -15t-24 -22.5t-18 -28t-7 -30.5q37 -5 61.5 -27.5t24.5 -59.5z" />
    <glyph glyph-name="quotedblright" unicode="&#x201d;" horiz-adv-x="539" 
d="M300 1312q0 37 28 62t70 25q41 0 71 -28.5t30 -82.5q0 -32 -13.5 -64t-33.5 -60t-44 -50t-46 -34l-50 49q12 5 25 15t24 22.5t18 28t7 30.5q-37 5 -61.5 27.5t-24.5 59.5zM40 1312q0 37 28 62t70 25q41 0 71 -28.5t30 -82.5q0 -32 -13.5 -64t-33.5 -60t-44 -50t-46 -34
l-50 49q12 5 25 15t24 22.5t18 28t7 30.5q-37 5 -61.5 27.5t-24.5 59.5z" />
    <glyph glyph-name="quotedblbase" unicode="&#x201e;" horiz-adv-x="539" 
d="M300 87q0 37 28 62t70 25q41 0 71 -28.5t30 -82.5q0 -32 -13.5 -64t-33.5 -60t-44 -50t-46 -34l-50 49q12 5 25 15t24 22.5t18 28t7 30.5q-37 5 -61.5 27.5t-24.5 59.5zM40 87q0 37 28 62t70 25q41 0 71 -28.5t30 -82.5q0 -32 -13.5 -64t-33.5 -60t-44 -50t-46 -34
l-50 49q12 5 25 15t24 22.5t18 28t7 30.5q-37 5 -61.5 27.5t-24.5 59.5z" />
    <glyph glyph-name="dagger" unicode="&#x2020;" horiz-adv-x="757" 
d="M445 1374q-7 -69 -10.5 -149.5t-5.5 -168.5q40 2 80.5 5t73.5 6q39 4 74 8v-122q-36 4 -75 8q-33 3 -73.5 6t-80.5 5q-1 -75 -0.5 -151.5t1.5 -149.5t2.5 -141t3.5 -128q4 -141 10 -269h-133q6 128 10 269q2 60 3.5 128t2.5 141t1.5 149.5t-0.5 151.5q-40 -2 -80.5 -5
t-73.5 -6q-39 -4 -75 -8v122q35 -4 74 -8q33 -3 73 -6t80 -5q-2 88 -5.5 168.5t-9.5 149.5h133z" />
    <glyph glyph-name="daggerdbl" unicode="&#x2021;" horiz-adv-x="757" 
d="M445 1374q-7 -69 -10.5 -149.5t-5.5 -168.5q40 2 80.5 5t73.5 6q39 4 74 8v-122q-36 4 -75 8q-33 3 -73.5 6t-80.5 5v-226q40 2 80.5 5t73.5 6q39 4 75 8v-122q-36 4 -75 8q-33 3 -73.5 6t-79.5 5q2 -109 4 -205t5 -168q3 -84 7 -156h-133q2 72 6 156q2 72 5 168t5 205
q-40 -2 -80.5 -5t-73.5 -6q-39 -4 -74 -8v122q36 -4 75 -8q33 -3 73.5 -6t80.5 -5q0 56 0.5 112.5t-0.5 113.5q-40 -2 -80.5 -5t-73.5 -6q-39 -4 -75 -8v122q35 -4 74 -8q33 -3 73 -6t80 -5q-2 88 -5.5 168.5t-9.5 149.5h133z" />
    <glyph glyph-name="bullet" unicode="&#x2022;" horiz-adv-x="600" 
d="M95 707q0 42 16 79t44 65t65.5 44t79.5 16t79.5 -16t65.5 -44t44 -65t16 -79t-16 -79.5t-44 -65.5t-65.5 -44t-79.5 -16t-79.5 16t-65.5 44t-44 65.5t-16 79.5z" />
    <glyph glyph-name="ellipsis" unicode="&#x2026;" horiz-adv-x="924" 
d="M50 82q0 21 8 40t22 33.5t33 22.5t41 8q21 0 40 -8t33.5 -22.5t22.5 -33.5t8 -40q0 -22 -8 -41t-22.5 -33t-33.5 -22t-40 -8q-44 0 -74 30t-30 74zM358 82q0 21 8 40t22 33.5t33 22.5t41 8q21 0 40 -8t33.5 -22.5t22.5 -33.5t8 -40q0 -22 -8 -41t-22.5 -33t-33.5 -22
t-40 -8q-44 0 -74 30t-30 74zM666 82q0 21 8 40t22 33.5t33 22.5t41 8q21 0 40 -8t33.5 -22.5t22.5 -33.5t8 -40q0 -22 -8 -41t-22.5 -33t-33.5 -22t-40 -8q-44 0 -74 30t-30 74z" />
    <glyph glyph-name="perthousand" unicode="&#x2030;" horiz-adv-x="1590" 
d="M316 0h-109l547 1374h109zM488 1024q0 -82 -18 -147t-48 -110.5t-69.5 -69.5t-83.5 -24q-48 0 -88 24t-69 69.5t-45.5 110.5t-16.5 147t16.5 147t45.5 110t69 69t88 24t88 -24t69 -69t45.5 -110t16.5 -147zM367 1024q0 122 -23 191.5t-75 69.5q-53 0 -75.5 -69.5
t-22.5 -191.5t22.5 -192t75.5 -70q52 0 75 70t23 192zM1030 351q0 -82 -18 -147t-48 -110.5t-69.5 -69.5t-83.5 -24q-48 0 -88 24t-69 69.5t-45.5 110.5t-16.5 147t16.5 147t45.5 110t69 69t88 24t88 -24t69 -69t45.5 -110t16.5 -147zM909 351q0 122 -23 191.5t-75 69.5
q-53 0 -75.5 -69.5t-22.5 -191.5t22.5 -192t75.5 -70q52 0 75 70t23 192zM1540 351q0 -82 -18 -147t-48 -110.5t-69.5 -69.5t-83.5 -24q-48 0 -88 24t-69 69.5t-45.5 110.5t-16.5 147t16.5 147t45.5 110t69 69t88 24t88 -24t69 -69t45.5 -110t16.5 -147zM1419 351
q0 122 -23 191.5t-75 69.5q-53 0 -75.5 -69.5t-22.5 -191.5t22.5 -192t75.5 -70q52 0 75 70t23 192z" />
    <glyph glyph-name="guilsinglleft" unicode="&#x2039;" horiz-adv-x="450" 
d="M288 300l-228 385l228 383l116 -75l-199 -308l199 -310z" />
    <glyph glyph-name="guilsinglright" unicode="&#x203a;" horiz-adv-x="450" 
d="M46 375l199 310l-199 308l116 75l228 -383l-228 -385z" />
    <glyph glyph-name="fraction" unicode="&#x2044;" horiz-adv-x="230" 
d="M-121 0h-109l581 1374h109z" />
    <glyph glyph-name="Euro" unicode="&#x20ac;" horiz-adv-x="852" 
d="M313 641h213l-21 -102h-186q9 -108 31.5 -191.5t55.5 -139.5t75.5 -85t92.5 -29q38 0 68 11t54 27.5t45 37t41 39.5v-201q-49 -14 -98.5 -22.5t-109.5 -8.5q-84 0 -156 34t-127.5 103.5t-92 175.5t-49.5 249h-119l23 102h91q-1 11 -1 22v23v36t1 36h-114l23 102h99
q15 136 54 236.5t94.5 167t125.5 99t148 32.5q60 0 109.5 -8.5t98.5 -22.5v-201q-20 19 -41 39.5t-45 37t-54 27.5t-68 11q-96 0 -163.5 -106.5t-89.5 -311.5h258l-22 -102h-243q-1 -18 -1 -35.5v-36.5v-45z" />
    <glyph glyph-name="trademark" unicode="&#x2122;" horiz-adv-x="960" 
d="M605 778q-21 108 -46.5 222.5t-60.5 229.5h-4q-2 -38 -1.5 -79.5t0.5 -74.5q0 -66 1.5 -145t5.5 -153h-99q5 74 6.5 153t1.5 145q0 67 -1.5 145.5t-6.5 152.5h133q13 -62 24 -115t22.5 -102t24.5 -96.5t28 -97.5h5q15 50 28 97.5t24.5 96.5t22.5 102t24 115h133
q-5 -74 -6.5 -152.5t-1.5 -145.5q0 -66 1.5 -145t6.5 -153h-99q4 74 5.5 153t1.5 145q0 33 0.5 74.5t-1.5 79.5h-4q-35 -115 -60.5 -229.5t-46.5 -222.5h-61zM30 1374h337v-71h-121q-3 -59 -4 -117.5t-1 -109.5q0 -66 1.5 -145t6.5 -153h-101q5 74 6.5 153t1.5 145
q0 51 -1 109.5t-3 117.5h-122v71z" />
    <glyph glyph-name="partialdiff" unicode="&#x2202;" horiz-adv-x="810" 
d="M467 921q39 0 65 -5.5t40 -10.5q-3 69 -13.5 135t-31.5 118t-55.5 84t-86.5 32q-26 0 -49 -8.5t-41.5 -22t-32.5 -29.5t-20 -31l-87 119q29 27 64 48q30 18 70.5 33.5t88.5 15.5q78 0 136.5 -25t100 -68.5t68 -103t42 -127.5t21.5 -141.5t6 -146.5q0 -222 -37 -376.5
t-98.5 -251t-140.5 -140.5t-163 -44q-60 0 -109 24t-83.5 67t-53.5 103.5t-19 133.5q0 144 34.5 258.5t92 194.5t133.5 122.5t159 42.5zM575 788q-13 5 -38.5 11t-65.5 6q-37 0 -69.5 -22t-60.5 -59.5t-50 -87.5t-37.5 -106t-24 -116t-8.5 -116q0 -103 27.5 -155t78.5 -52
t96.5 44t79 131t53 216t19.5 299v7z" />
    <glyph glyph-name="minus" unicode="&#x2212;" horiz-adv-x="1124" 
d="M974 746v-122h-824v122h824z" />
    <glyph glyph-name="uni2215" unicode="&#x2215;" horiz-adv-x="230" 
d="M-121 0h-109l581 1374h109z" />
    <glyph glyph-name="approxequal" unicode="&#x2248;" horiz-adv-x="1124" 
d="M954 516q-35 -42 -83 -71.5t-116 -29.5q-53 0 -100.5 17.5t-94.5 38t-95.5 38t-102.5 17.5q-30 0 -57.5 -10.5t-52 -27t-45.5 -36.5t-37 -40v136q36 43 88.5 71.5t110.5 28.5q52 0 100 -17.5t95 -38t96 -38t103 -17.5q29 0 56.5 10t51.5 26.5t45 37t38 41.5v-136z
M954 825q-35 -42 -83 -71.5t-116 -29.5q-53 0 -100.5 17.5t-94.5 38t-95.5 38t-102.5 17.5q-30 0 -57.5 -10.5t-52 -27t-45.5 -36.5t-37 -40v136q36 43 88.5 71.5t110.5 28.5q52 0 100 -17.5t95 -38t96 -38t103 -17.5q29 0 56.5 10t51.5 26.5t45 37t38 41.5v-136z" />
    <glyph glyph-name="notequal" unicode="&#x2260;" horiz-adv-x="1124" 
d="M722 922h232v-122h-284l-98 -230h382v-122h-433l-109 -257h-119l109 257h-232v122h283l98 230h-381v122h433l109 257h119z" />
    <glyph glyph-name="lessequal" unicode="&#x2264;" horiz-adv-x="1124" 
d="M974 278v-122h-824v122h824zM150 684v102l824 320v-131l-652 -240l652 -240v-131z" />
    <glyph glyph-name="greaterequal" unicode="&#x2265;" horiz-adv-x="1124" 
d="M974 278v-122h-824v122h824zM150 364v131l652 240l-652 240v131l824 -320v-102z" />
    <glyph glyph-name="fi" unicode="&#xfb01;" horiz-adv-x="1133" 
d="M712 1219q-13 13 -34.5 23.5t-47 18t-52 11t-48.5 3.5q-64 0 -112.5 -22t-81 -63.5t-49 -100.5t-16.5 -133v-165h390v-117h-390v-37q0 -152 3.5 -312.5t14.5 -324.5h-188q9 165 13.5 326t4.5 311v319q0 104 26 186t78 139t129 87.5t178 30.5q20 0 45 -1.5t50 -4t48 -6.5
t39 -10v-158zM1027 1374q-6 -85 -9.5 -174t-5.5 -177t-3 -173t-1 -162t1 -162t3 -173.5t5 -178t8 -174.5h-187q6 85 9.5 174.5t5.5 178t3 173.5t1 162t-1 162t-3 173t-5.5 177t-9.5 174h189z" />
    <glyph glyph-name="fl" unicode="&#xfb02;" horiz-adv-x="1428" 
d="M712 1219q-13 13 -34.5 23.5t-47 18t-52 11t-48.5 3.5q-64 0 -112.5 -22t-81 -63.5t-49 -100.5t-16.5 -133v-165h390v-117h-390v-37q0 -152 3.5 -312.5t14.5 -324.5h-188q9 165 13.5 326t4.5 311v319q0 104 26 186t78 139t129 87.5t178 30.5q20 0 45 -1.5t50 -4t48 -6.5
t39 -10v-158zM1021 1374q-6 -85 -9.5 -174t-5.5 -177t-3 -173t-1 -162q0 -129 2 -276.5t9 -294.5h405v-117h-586q6 85 9.5 174.5t5.5 178t3 173.5t1 162t-1 162t-3 173t-5.5 177t-9.5 174h189z" />
    <glyph glyph-name="ibreve" horiz-adv-x="401" 
d="M295 1374q-6 -85 -9.5 -174t-5.5 -177t-3 -173t-1 -162t1 -162t3 -173.5t5 -178t8 -174.5h-187q6 85 9.5 174.5t5.5 178t3 173.5t1 162t-1 162t-3 173t-5.5 177t-9.5 174h189zM401 1733q-1 -37 -10.5 -75t-32.5 -68.5t-60.5 -49.5t-94.5 -19q-56 0 -93.5 19t-60.5 49.5
t-33.5 68.5t-11.5 75h104q2 -18 6.5 -37t14.5 -34.5t27.5 -25.5t46.5 -10t47 10t28.5 25.5t15.5 34.5t7 37h100v0z" />
    <glyph glyph-name="commaaccent" horiz-adv-x="541" 
d="M176 -214q0 37 24 62t66 25q41 0 70 -28.5t29 -82.5q0 -27 -7.5 -50t-18.5 -43t-24.5 -36.5t-26.5 -29.5h-107v5q12 7 26.5 19t28 26t23.5 28.5t13 27.5q-48 0 -72 20t-24 57z" />
    </font>
</defs>
</svg>
